  0
SECTION
  2
HEADER
  9
$ACADVER
  1
AC1027
  9
$ACADMAINTVER
 70
   125
  9
$DWGCODEPAGE
  3
ANSI_1252
  9
$LASTSAVEDBY
  1
Utente
  9
$REQUIREDVERSIONS
160
                 0
  9
$INSBASE
 10
0.0
 20
0.0
 30
0.0
  9
$EXTMIN
 10
475.8589359988816
 20
289.2045762593616
 30
0.0
  9
$EXTMAX
 10
1206.472661770427
 20
738.1499121928893
 30
0.0
  9
$LIMMIN
 10
0.0
 20
0.0
  9
$LIMMAX
 10
12.0
 20
9.0
  9
$ORTHOMODE
 70
     0
  9
$REGENMODE
 70
     1
  9
$FILLMODE
 70
     1
  9
$QTEXTMODE
 70
     0
  9
$MIRRTEXT
 70
     0
  9
$LTSCALE
 40
1.0
  9
$ATTMODE
 70
     1
  9
$TEXTSIZE
 40
2.5
  9
$TRACEWID
 40
0.05
  9
$TEXTSTYLE
  7
STANDARD
  9
$CLAYER
  8
quote
  9
$CELTYPE
  6
BYLAYER
  9
$CECOLOR
 62
   256
  9
$CELTSCALE
 40
1.0
  9
$DISPSILH
 70
     0
  9
$DIMSCALE
 40
1.0
  9
$DIMASZ
 40
4.0
  9
$DIMEXO
 40
0.0625
  9
$DIMDLI
 40
0.38
  9
$DIMRND
 40
0.0
  9
$DIMDLE
 40
0.0
  9
$DIMEXE
 40
0.18
  9
$DIMTP
 40
0.0
  9
$DIMTM
 40
0.0
  9
$DIMTXT
 40
6.0
  9
$DIMCEN
 40
0.09
  9
$DIMTSZ
 40
0.0
  9
$DIMTOL
 70
     0
  9
$DIMLIM
 70
     0
  9
$DIMTIH
 70
     0
  9
$DIMTOH
 70
     0
  9
$DIMSE1
 70
     0
  9
$DIMSE2
 70
     0
  9
$DIMTAD
 70
     0
  9
$DIMZIN
 70
     8
  9
$DIMBLK
  1

  9
$DIMASO
 70
     1
  9
$DIMSHO
 70
     1
  9
$DIMPOST
  1

  9
$DIMAPOST
  1

  9
$DIMALT
 70
     0
  9
$DIMALTD
 70
     2
  9
$DIMALTF
 40
25.4
  9
$DIMLFAC
 40
1.0
  9
$DIMTOFL
 70
     0
  9
$DIMTVP
 40
0.0
  9
$DIMTIX
 70
     0
  9
$DIMSOXD
 70
     0
  9
$DIMSAH
 70
     0
  9
$DIMBLK1
  1

  9
$DIMBLK2
  1

  9
$DIMSTYLE
  2
ISO-25
  9
$DIMCLRD
 70
     0
  9
$DIMCLRE
 70
     0
  9
$DIMCLRT
 70
     0
  9
$DIMTFAC
 40
1.0
  9
$DIMGAP
 40
0.1
  9
$DIMJUST
 70
     0
  9
$DIMSD1
 70
     0
  9
$DIMSD2
 70
     0
  9
$DIMTOLJ
 70
     1
  9
$DIMTZIN
 70
     0
  9
$DIMALTZ
 70
     0
  9
$DIMALTTZ
 70
     0
  9
$DIMUPT
 70
     0
  9
$DIMDEC
 70
     1
  9
$DIMTDEC
 70
     1
  9
$DIMALTU
 70
     2
  9
$DIMALTTD
 70
     2
  9
$DIMTXSTY
  7
STANDARD
  9
$DIMAUNIT
 70
     0
  9
$DIMADEC
 70
     0
  9
$DIMALTRND
 40
0.0
  9
$DIMAZIN
 70
     0
  9
$DIMDSEP
 70
    46
  9
$DIMATFIT
 70
     3
  9
$DIMFRAC
 70
     0
  9
$DIMLDRBLK
  1

  9
$DIMLUNIT
 70
     2
  9
$DIMLWD
 70
    -2
  9
$DIMLWE
 70
    -2
  9
$DIMTMOVE
 70
     1
  9
$DIMFXL
 40
1.0
  9
$DIMFXLON
 70
     0
  9
$DIMJOGANG
 40
1.570796326794896
  9
$DIMTFILL
 70
     0
  9
$DIMTFILLCLR
 70
     0
  9
$DIMARCSYM
 70
     0
  9
$DIMLTYPE
  6

  9
$DIMLTEX1
  6

  9
$DIMLTEX2
  6

  9
$DIMTXTDIRECTION
 70
     0
  9
$LUNITS
 70
     2
  9
$LUPREC
 70
     4
  9
$SKETCHINC
 40
0.1
  9
$FILLETRAD
 40
0.0
  9
$AUNITS
 70
     0
  9
$AUPREC
 70
     0
  9
$MENU
  1
.
  9
$ELEVATION
 40
0.0
  9
$PELEVATION
 40
0.0
  9
$THICKNESS
 40
0.0
  9
$LIMCHECK
 70
     0
  9
$CHAMFERA
 40
0.0
  9
$CHAMFERB
 40
0.0
  9
$CHAMFERC
 40
0.0
  9
$CHAMFERD
 40
0.0
  9
$SKPOLY
 70
     0
  9
$TDCREATE
 40
2458929.771365741
  9
$TDUCREATE
 40
2458929.729699074
  9
$TDUPDATE
 40
2459016.498020833
  9
$TDUUPDATE
 40
2459016.414687500
  9
$TDINDWG
 40
8.7960416667
  9
$TDUSRTIMER
 40
8.7960416667
  9
$USRTIMER
 70
     1
  9
$ANGBASE
 50
0.0
  9
$ANGDIR
 70
     0
  9
$PDMODE
 70
     0
  9
$PDSIZE
 40
0.0
  9
$PLINEWID
 40
0.0
  9
$SPLFRAME
 70
     0
  9
$SPLINETYPE
 70
     6
  9
$SPLINESEGS
 70
     8
  9
$HANDSEED
  5
1015D47
  9
$SURFTAB1
 70
     6
  9
$SURFTAB2
 70
     6
  9
$SURFTYPE
 70
     6
  9
$SURFU
 70
     6
  9
$SURFV
 70
     6
  9
$UCSBASE
  2

  9
$UCSNAME
  2

  9
$UCSORG
 10
0.0
 20
0.0
 30
0.0
  9
$UCSXDIR
 10
1.0
 20
0.0
 30
0.0
  9
$UCSYDIR
 10
0.0
 20
1.0
 30
0.0
  9
$UCSORTHOREF
  2

  9
$UCSORTHOVIEW
 70
     0
  9
$UCSORGTOP
 10
0.0
 20
0.0
 30
0.0
  9
$UCSORGBOTTOM
 10
0.0
 20
0.0
 30
0.0
  9
$UCSORGLEFT
 10
0.0
 20
0.0
 30
0.0
  9
$UCSORGRIGHT
 10
0.0
 20
0.0
 30
0.0
  9
$UCSORGFRONT
 10
0.0
 20
0.0
 30
0.0
  9
$UCSORGBACK
 10
0.0
 20
0.0
 30
0.0
  9
$PUCSBASE
  2

  9
$PUCSNAME
  2

  9
$PUCSORG
 10
0.0
 20
0.0
 30
0.0
  9
$PUCSXDIR
 10
1.0
 20
0.0
 30
0.0
  9
$PUCSYDIR
 10
0.0
 20
1.0
 30
0.0
  9
$PUCSORTHOREF
  2

  9
$PUCSORTHOVIEW
 70
     0
  9
$PUCSORGTOP
 10
0.0
 20
0.0
 30
0.0
  9
$PUCSORGBOTTOM
 10
0.0
 20
0.0
 30
0.0
  9
$PUCSORGLEFT
 10
0.0
 20
0.0
 30
0.0
  9
$PUCSORGRIGHT
 10
0.0
 20
0.0
 30
0.0
  9
$PUCSORGFRONT
 10
0.0
 20
0.0
 30
0.0
  9
$PUCSORGBACK
 10
0.0
 20
0.0
 30
0.0
  9
$USERI1
 70
     0
  9
$USERI2
 70
     0
  9
$USERI3
 70
     0
  9
$USERI4
 70
     0
  9
$USERI5
 70
     0
  9
$USERR1
 40
0.0
  9
$USERR2
 40
0.0
  9
$USERR3
 40
0.0
  9
$USERR4
 40
0.0
  9
$USERR5
 40
0.0
  9
$WORLDVIEW
 70
     1
  9
$SHADEDGE
 70
     3
  9
$SHADEDIF
 70
    70
  9
$TILEMODE
 70
     1
  9
$MAXACTVP
 70
    64
  9
$PINSBASE
 10
0.0
 20
0.0
 30
0.0
  9
$PLIMCHECK
 70
     0
  9
$PEXTMIN
 10
1.000000000000000E+20
 20
1.000000000000000E+20
 30
1.000000000000000E+20
  9
$PEXTMAX
 10
-1.000000000000000E+20
 20
-1.000000000000000E+20
 30
-1.000000000000000E+20
  9
$PLIMMIN
 10
0.0
 20
0.0
  9
$PLIMMAX
 10
12.0
 20
9.0
  9
$UNITMODE
 70
     0
  9
$VISRETAIN
 70
     1
  9
$PLINEGEN
 70
     0
  9
$PSLTSCALE
 70
     1
  9
$TREEDEPTH
 70
  3020
  9
$CMLSTYLE
  2
Standard
  9
$CMLJUST
 70
     0
  9
$CMLSCALE
 40
1.0
  9
$PROXYGRAPHICS
 70
     1
  9
$MEASUREMENT
 70
     1
  9
$CELWEIGHT
370
    -1
  9
$ENDCAPS
280
     0
  9
$JOINSTYLE
280
     0
  9
$LWDISPLAY
290
     1
  9
$INSUNITS
 70
     0
  9
$HYPERLINKBASE
  1

  9
$STYLESHEET
  1
cetra.ctb
  9
$XEDIT
290
     1
  9
$CEPSNTYPE
380
     0
  9
$PSTYLEMODE
290
     1
  9
$FINGERPRINTGUID
  2
{A2590E1B-42DC-4444-A975-68D54A13252B}
  9
$VERSIONGUID
  2
{F7AADDEE-A469-0240-A2A1-1BCA4E011ADD}
  9
$EXTNAMES
290
     1
  9
$PSVPSCALE
 40
0.0
  9
$OLESTARTUP
290
     0
  9
$SORTENTS
280
   127
  9
$INDEXCTL
280
     0
  9
$HIDETEXT
280
     0
  9
$XCLIPFRAME
280
     2
  9
$HALOGAP
280
     0
  9
$OBSCOLOR
 70
   257
  9
$OBSLTYPE
280
     0
  9
$INTERSECTIONDISPLAY
280
     0
  9
$INTERSECTIONCOLOR
 70
   257
  9
$DIMASSOC
280
     1
  9
$PROJECTNAME
  1

  9
$CAMERADISPLAY
290
     0
  9
$LENSLENGTH
 40
50.0
  9
$CAMERAHEIGHT
 40
0.0
  9
$STEPSPERSEC
 40
2.0
  9
$STEPSIZE
 40
6.0
  9
$3DDWFPREC
 40
2.0
  9
$PSOLWIDTH
 40
0.25
  9
$PSOLHEIGHT
 40
4.0
  9
$LOFTANG1
 40
1.570796326794896
  9
$LOFTANG2
 40
1.570796326794896
  9
$LOFTMAG1
 40
0.0
  9
$LOFTMAG2
 40
0.0
  9
$LOFTPARAM
 70
     7
  9
$LOFTNORMALS
280
     1
  9
$LATITUDE
 40
37.795
  9
$LONGITUDE
 40
-122.394
  9
$NORTHDIRECTION
 40
0.0
  9
$TIMEZONE
 70
 -8000
  9
$LIGHTGLYPHDISPLAY
280
     1
  9
$TILEMODELIGHTSYNCH
280
     1
  9
$CMATERIAL
347
1010004
  9
$SOLIDHIST
280
     0
  9
$SHOWHIST
280
     1
  9
$DWFFRAME
280
     2
  9
$DGNFRAME
280
     0
  9
$REALWORLDSCALE
290
     1
  9
$INTERFERECOLOR
 62
     1
  9
$INTERFEREOBJVS
345
1010026
  9
$INTERFEREVPVS
346
1010023
  9
$CSHADOW
280
     0
  9
$SHADOWPLANELOCATION
 40
0.0
  0
ENDSEC
  0
SECTION
  2
CLASSES
  0
CLASS
  1
ACDBDICTIONARYWDFLT
  2
AcDbDictionaryWithDefault
  3
ObjectDBX Classes
 90
        0
 91
        1
280
     0
281
     0
  0
CLASS
  1
MATERIAL
  2
AcDbMaterial
  3
ObjectDBX Classes
 90
     1153
 91
        3
280
     0
281
     0
  0
CLASS
  1
VISUALSTYLE
  2
AcDbVisualStyle
  3
ObjectDBX Classes
 90
     4095
 91
       24
280
     0
281
     0
  0
CLASS
  1
TABLESTYLE
  2
AcDbTableStyle
  3
ObjectDBX Classes
 90
     4095
 91
        1
280
     0
281
     0
  0
CLASS
  1
SCALE
  2
AcDbScale
  3
ObjectDBX Classes
 90
     1153
 91
       17
280
     0
281
     0
  0
CLASS
  1
MLEADERSTYLE
  2
AcDbMLeaderStyle
  3
ACDB_MLEADERSTYLE_CLASS
 90
     4095
 91
        1
280
     0
281
     0
  0
CLASS
  1
ACDBSECTIONVIEWSTYLE
  2
AcDbSectionViewStyle
  3
ObjectDBX Classes
 90
     1025
 91
        1
280
     0
281
     0
  0
CLASS
  1
ACDBDETAILVIEWSTYLE
  2
AcDbDetailViewStyle
  3
ObjectDBX Classes
 90
     1025
 91
        1
280
     0
281
     0
  0
CLASS
  1
DICTIONARYVAR
  2
AcDbDictionaryVar
  3
ObjectDBX Classes
 90
        0
 91
       13
280
     0
281
     0
  0
CLASS
  1
SORTENTSTABLE
  2
AcDbSortentsTable
  3
ObjectDBX Classes
 90
        0
 91
        1
280
     0
281
     0
  0
CLASS
  1
CELLSTYLEMAP
  2
AcDbCellStyleMap
  3
ObjectDBX Classes
 90
     1152
 91
        1
280
     0
281
     0
  0
ENDSEC
  0
SECTION
  2
TABLES
  0
TABLE
  2
VPORT
  5
8
330
0
100
AcDbSymbolTable
 70
     1
1001
ACAD
1000
DbSaveVer
1071
        5
  0
VPORT
  5
2E
330
8
100
AcDbSymbolTableRecord
100
AcDbViewportTableRecord
  2
*ACTIVE
 70
     0
 10
0.0
 20
0.0
 11
1.0
 21
1.0
 12
1350.850544931182
 22
415.245908920217
 13
0.0
 23
0.0
 14
10.0
 24
10.0
 15
10.0
 25
10.0
 16
0.0
 26
0.0
 36
1.0
 17
0.0
 27
0.0
 37
0.0
 40
794.9019464342581
 41
2.607003891050583
 42
50.0
 43
0.0
 44
0.0
 50
0.0
 51
0.0
 71
     0
 72
   100
 73
     1
 74
     3
 75
     0
 76
     0
 77
     0
 78
     0
281
     0
 65
     1
110
0.0
120
0.0
130
0.0
111
1.0
121
0.0
131
0.0
112
0.0
122
1.0
132
0.0
 79
     0
146
0.0
348
1010022
 60
     3
 61
     5
292
     1
282
     1
141
0.0
142
0.0
 63
   250
421
  3355443
1001
ACAD_NAV_VCDISPLAY
1070
     3
  0
ENDTAB
  0
TABLE
  2
LTYPE
  5
5
330
0
100
AcDbSymbolTable
 70
     3
  0
LTYPE
  5
14
330
5
100
AcDbSymbolTableRecord
100
AcDbLinetypeTableRecord
  2
BYBLOCK
 70
     0
  3

 72
    65
 73
     0
 40
0.0
  0
LTYPE
  5
15
330
5
100
AcDbSymbolTableRecord
100
AcDbLinetypeTableRecord
  2
BYLAYER
 70
     0
  3

 72
    65
 73
     0
 40
0.0
  0
LTYPE
  5
16
330
5
100
AcDbSymbolTableRecord
100
AcDbLinetypeTableRecord
  2
CONTINUOUS
 70
     0
  3
Solid line
 72
    65
 73
     0
 40
0.0
  0
LTYPE
  5
1010232
330
5
100
AcDbSymbolTableRecord
100
AcDbLinetypeTableRecord
  2
ACAD_ISO02W100
 70
     0
  3
Tratto ISO __ __ __ __ __ __ __ __ __ __ __ __ 
 72
    65
 73
     2
 40
15.0
 49
12.0
 74
     0
 49
-3.0
 74
     0
  0
LTYPE
  5
1010782
330
5
100
AcDbSymbolTableRecord
100
AcDbLinetypeTableRecord
  2
ACAD_ISO03W100
 70
     0
  3
Tratto spazio ISO __    __    __    __    __   
 72
    65
 73
     2
 40
30.0
 49
12.0
 74
     0
 49
-18.0
 74
     0
  0
ENDTAB
  0
TABLE
  2
LAYER
  5
2
102
{ACAD_XDICTIONARY
360
10100E0
102
}
330
0
100
AcDbSymbolTable
 70
    10
  0
LAYER
  5
50
102
{ACAD_XDICTIONARY
360
1010066
102
}
330
2
100
AcDbSymbolTableRecord
100
AcDbLayerTableRecord
  2
0
 70
     0
 62
     7
  6
CONTINUOUS
370
    -3
390
1010002
347
1010014
348
0
  0
LAYER
  5
51
102
{ACAD_XDICTIONARY
360
1010068
102
}
330
2
100
AcDbSymbolTableRecord
100
AcDbLayerTableRecord
  2
LAYER_1
 70
     0
 62
     7
  6
CONTINUOUS
370
    20
390
1010002
347
1010014
348
0
  0
LAYER
  5
1010058
330
2
100
AcDbSymbolTableRecord
100
AcDbLayerTableRecord
  2
Defpoints
 70
     0
 62
     7
  6
CONTINUOUS
290
     0
370
    -3
390
1010002
347
1010014
348
0
  0
LAYER
  5
10100C9
330
2
100
AcDbSymbolTableRecord
100
AcDbLayerTableRecord
  2
proiezioni
 70
     0
 62
   253
  6
ACAD_ISO03W100
370
     9
390
1010002
347
1010014
348
0
1001
AcAecLayerStandard
1000

1000

1001
AcCmTransparency
1071
        0
  0
LAYER
  5
10100CC
330
2
100
AcDbSymbolTableRecord
100
AcDbLayerTableRecord
  2
quote
 70
     0
 62
   252
  6
CONTINUOUS
370
     9
390
1010002
347
1010014
348
0
1001
AcAecLayerStandard
1000

1000

1001
AcCmTransparency
1071
        0
  0
LAYER
  5
10100DC
330
2
100
AcDbSymbolTableRecord
100
AcDbLayerTableRecord
  2
tratteggio
 70
     0
 62
     9
  6
ACAD_ISO03W100
370
    -3
390
1010002
347
1010014
348
0
1001
AcAecLayerStandard
1000

1000

1001
AcCmTransparency
1071
        0
  0
LAYER
  5
10108D4
330
2
100
AcDbSymbolTableRecord
100
AcDbLayerTableRecord
  2
viste
 70
     0
 62
     7
  6
CONTINUOUS
370
    18
390
1010002
347
1010014
348
0
1001
AcAecLayerStandard
1000

1000

1001
AcCmTransparency
1071
        0
  0
LAYER
  5
1010969
330
2
100
AcDbSymbolTableRecord
100
AcDbLayerTableRecord
  2
testo
 70
     0
 62
     7
  6
CONTINUOUS
370
     9
390
1010002
347
1010014
348
0
1001
AcAecLayerStandard
1000

1000

1001
AcCmTransparency
1071
        0
  0
LAYER
  5
1010AC2
330
2
100
AcDbSymbolTableRecord
100
AcDbLayerTableRecord
  2
VITE
 70
     0
 62
   252
  6
CONTINUOUS
370
    13
390
1010002
347
1010014
348
0
1001
AcAecLayerStandard
1000

1000

1001
RAK
1000
{ACET-LAYISO
1070
     0
1070
   252
1000
Continuous
1071
       -3
1071
        1
1005
1010002
1000
ACET-LAYISO}
  0
LAYER
  5
10130C8
330
2
100
AcDbSymbolTableRecord
100
AcDbLayerTableRecord
  2
riempimento
 70
     0
 62
    31
420
 16435077
  6
ACAD_ISO03W100
370
    -3
390
1010002
347
1010014
348
0
1001
AcAecLayerStandard
1000

1000

1001
AcCmTransparency
1071
        0
  0
ENDTAB
  0
TABLE
  2
STYLE
  5
3
330
0
100
AcDbSymbolTable
 70
     2
  0
STYLE
  5
11
330
3
100
AcDbSymbolTableRecord
100
AcDbTextStyleTableRecord
  2
STANDARD
 70
     0
 40
0.0
 41
1.0
 50
0.0
 71
     0
 42
2.5
  3
txt
  4

  0
STYLE
  5
1010231
330
3
100
AcDbSymbolTableRecord
100
AcDbTextStyleTableRecord
  2

 70
     1
 40
0.0
 41
1.0
 50
0.0
 71
     0
 42
2.5
  3
ltypeshp.shx
  4

  0
ENDTAB
  0
TABLE
  2
VIEW
  5
6
330
0
100
AcDbSymbolTable
 70
     0
  0
ENDTAB
  0
TABLE
  2
UCS
  5
7
330
0
100
AcDbSymbolTable
 70
     0
  0
ENDTAB
  0
TABLE
  2
APPID
  5
9
330
0
100
AcDbSymbolTable
 70
    15
  0
APPID
  5
12
330
9
100
AcDbSymbolTableRecord
100
AcDbRegAppTableRecord
  2
ACAD
 70
     0
  0
APPID
  5
101006A
330
9
100
AcDbSymbolTableRecord
100
AcDbRegAppTableRecord
  2
ACAD_PSEXT
 70
     0
  0
APPID
  5
1010074
330
9
100
AcDbSymbolTableRecord
100
AcDbRegAppTableRecord
  2
ACAD_NAV_VCDISPLAY
 70
     0
  0
APPID
  5
1010084
330
9
100
AcDbSymbolTableRecord
100
AcDbRegAppTableRecord
  2
ACAD_EXEMPT_FROM_CAD_STANDARDS
 70
     0
  0
APPID
  5
10100CA
330
9
100
AcDbSymbolTableRecord
100
AcDbRegAppTableRecord
  2
AcAecLayerStandard
 70
     0
  0
APPID
  5
10100CB
330
9
100
AcDbSymbolTableRecord
100
AcDbRegAppTableRecord
  2
AcCmTransparency
 70
     0
  0
APPID
  5
1010525
330
9
100
AcDbSymbolTableRecord
100
AcDbRegAppTableRecord
  2
AcadAnnoMonitorAlertIconDisabled
 70
     0
  0
APPID
  5
10106E5
330
9
100
AcDbSymbolTableRecord
100
AcDbRegAppTableRecord
  2
ACAD_DSTYLE_DIMRADIAL_EXTENSION
 70
     0
  0
APPID
  5
10109A7
330
9
100
AcDbSymbolTableRecord
100
AcDbRegAppTableRecord
  2
ACAD_DSTYLE_DIMJAG
 70
     0
  0
APPID
  5
10109A8
330
9
100
AcDbSymbolTableRecord
100
AcDbRegAppTableRecord
  2
ACAD_DSTYLE_DIMTALN
 70
     0
  0
APPID
  5
1010AC3
330
9
100
AcDbSymbolTableRecord
100
AcDbRegAppTableRecord
  2
RAK
 70
     0
  0
APPID
  5
1012A01
330
9
100
AcDbSymbolTableRecord
100
AcDbRegAppTableRecord
  2
GradientColor1ACI
 70
     0
  0
APPID
  5
1012A02
330
9
100
AcDbSymbolTableRecord
100
AcDbRegAppTableRecord
  2
GradientColor2ACI
 70
     0
  0
APPID
  5
10134FB
330
9
100
AcDbSymbolTableRecord
100
AcDbRegAppTableRecord
  2
AcadAnnotative
 70
     0
  0
APPID
  5
1014D23
330
9
100
AcDbSymbolTableRecord
100
AcDbRegAppTableRecord
  2
ACAD_MLEADERVER
 70
     0
  0
ENDTAB
  0
TABLE
  2
DIMSTYLE
  5
A
330
0
100
AcDbSymbolTable
 70
     2
100
AcDbDimStyleTable
 71
     1
340
27
  0
DIMSTYLE
105
27
102
{ACAD_REACTORS
330
1015AA2
330
1015893
330
1015870
330
10152CC
330
10152CB
330
10152CA
330
10152C9
330
10152C8
330
10152C7
330
10152C6
330
10152C3
330
10152C2
330
10152C1
330
10152C0
330
10152BF
330
10152BE
330
10152BD
330
10152BB
330
10152BA
330
10152B8
330
10152B7
330
10152B6
330
10152B5
330
10152B3
330
10152B2
330
10152B1
330
10152B0
330
10152AF
330
10152A2
330
10152A1
330
10152A0
330
101529F
330
101529E
330
101529D
330
101529C
330
101529B
330
101529A
330
1015299
330
1015297
330
1015296
330
1015295
330
1015290
102
}
330
A
100
AcDbSymbolTableRecord
100
AcDbDimStyleTableRecord
  2
ISO-25
 70
     0
 41
2.5
 42
0.625
 43
3.75
 44
1.25
 73
     0
 74
     0
 77
     1
 78
     8
140
2.5
141
2.5
143
0.03937007874016
147
0.625
171
     3
172
     1
271
     2
272
     2
274
     3
283
     0
284
     8
340
11
  0
DIMSTYLE
105
10134FA
330
A
100
AcDbSymbolTableRecord
100
AcDbDimStyleTableRecord
  2
Annotativa
 70
     0
 40
0.0
 41
2.5
 42
0.625
 43
3.75
 44
1.25
 73
     0
 74
     0
 77
     1
 78
     8
140
2.5
141
2.5
143
0.03937007874016
147
0.625
171
     3
172
     1
271
     2
272
     2
274
     3
278
    44
283
     0
284
     8
340
11
1001
AcadAnnotative
1000
AnnotativeData
1002
{
1070
     1
1070
     1
1002
}
1001
ACAD_DSTYLE_DIMJAG
1070
   388
1040
1.5
1001
ACAD_DSTYLE_DIMTALN
1070
   392
1070
     0
  0
ENDTAB
  0
TABLE
  2
BLOCK_RECORD
  5
1
330
0
100
AcDbSymbolTable
 70
    42
  0
BLOCK_RECORD
  5
1F
102
{ACAD_XDICTIONARY
360
10100B6
102
}
330
1
100
AcDbSymbolTableRecord
100
AcDbBlockTableRecord
  2
*MODEL_SPACE
340
1010052
 70
     0
280
     1
281
     0
  0
BLOCK_RECORD
  5
1B
330
1
100
AcDbSymbolTableRecord
100
AcDbBlockTableRecord
  2
*PAPER_SPACE
340
1010053
 70
     0
280
     1
281
     0
  0
BLOCK_RECORD
  5
10152CD
330
1
100
AcDbSymbolTableRecord
100
AcDbBlockTableRecord
  2
*D0
340
0
 70
     0
280
     1
281
     0
  0
BLOCK_RECORD
  5
10152D7
330
1
100
AcDbSymbolTableRecord
100
AcDbBlockTableRecord
  2
*D1
340
0
 70
     0
280
     1
281
     0
  0
BLOCK_RECORD
  5
10152E4
330
1
100
AcDbSymbolTableRecord
100
AcDbBlockTableRecord
  2
*D2
340
0
 70
     0
280
     1
281
     0
  0
BLOCK_RECORD
  5
10152F1
330
1
100
AcDbSymbolTableRecord
100
AcDbBlockTableRecord
  2
*D3
340
0
 70
     0
280
     1
281
     0
  0
BLOCK_RECORD
  5
10152FE
330
1
100
AcDbSymbolTableRecord
100
AcDbBlockTableRecord
  2
*D4
340
0
 70
     0
280
     1
281
     0
  0
BLOCK_RECORD
  5
101530B
330
1
100
AcDbSymbolTableRecord
100
AcDbBlockTableRecord
  2
*D5
340
0
 70
     0
280
     1
281
     0
  0
BLOCK_RECORD
  5
1015318
330
1
100
AcDbSymbolTableRecord
100
AcDbBlockTableRecord
  2
*D6
340
0
 70
     0
280
     1
281
     0
  0
BLOCK_RECORD
  5
1015325
330
1
100
AcDbSymbolTableRecord
100
AcDbBlockTableRecord
  2
*D7
340
0
 70
     0
280
     1
281
     0
  0
BLOCK_RECORD
  5
1015332
330
1
100
AcDbSymbolTableRecord
100
AcDbBlockTableRecord
  2
*D8
340
0
 70
     0
280
     1
281
     0
  0
BLOCK_RECORD
  5
1015340
330
1
100
AcDbSymbolTableRecord
100
AcDbBlockTableRecord
  2
*D9
340
0
 70
     0
280
     1
281
     0
  0
BLOCK_RECORD
  5
101534A
330
1
100
AcDbSymbolTableRecord
100
AcDbBlockTableRecord
  2
*D10
340
0
 70
     0
280
     1
281
     0
  0
BLOCK_RECORD
  5
1015358
330
1
100
AcDbSymbolTableRecord
100
AcDbBlockTableRecord
  2
*D11
340
0
 70
     0
280
     1
281
     0
  0
BLOCK_RECORD
  5
1015365
330
1
100
AcDbSymbolTableRecord
100
AcDbBlockTableRecord
  2
*D12
340
0
 70
     0
280
     1
281
     0
  0
BLOCK_RECORD
  5
1015372
330
1
100
AcDbSymbolTableRecord
100
AcDbBlockTableRecord
  2
*D13
340
0
 70
     0
280
     1
281
     0
  0
BLOCK_RECORD
  5
101537F
330
1
100
AcDbSymbolTableRecord
100
AcDbBlockTableRecord
  2
*D14
340
0
 70
     0
280
     1
281
     0
  0
BLOCK_RECORD
  5
101538C
330
1
100
AcDbSymbolTableRecord
100
AcDbBlockTableRecord
  2
*D15
340
0
 70
     0
280
     1
281
     0
  0
BLOCK_RECORD
  5
1015399
330
1
100
AcDbSymbolTableRecord
100
AcDbBlockTableRecord
  2
*D16
340
0
 70
     0
280
     1
281
     0
  0
BLOCK_RECORD
  5
10153A6
330
1
100
AcDbSymbolTableRecord
100
AcDbBlockTableRecord
  2
*D17
340
0
 70
     0
280
     1
281
     0
  0
BLOCK_RECORD
  5
10153B3
330
1
100
AcDbSymbolTableRecord
100
AcDbBlockTableRecord
  2
*D18
340
0
 70
     0
280
     1
281
     0
  0
BLOCK_RECORD
  5
10153CD
330
1
100
AcDbSymbolTableRecord
100
AcDbBlockTableRecord
  2
*D19
340
0
 70
     0
280
     1
281
     0
  0
BLOCK_RECORD
  5
10153DA
330
1
100
AcDbSymbolTableRecord
100
AcDbBlockTableRecord
  2
*D20
340
0
 70
     0
280
     1
281
     0
  0
BLOCK_RECORD
  5
10153E7
330
1
100
AcDbSymbolTableRecord
100
AcDbBlockTableRecord
  2
*D21
340
0
 70
     0
280
     1
281
     0
  0
BLOCK_RECORD
  5
10153F4
330
1
100
AcDbSymbolTableRecord
100
AcDbBlockTableRecord
  2
*D22
340
0
 70
     0
280
     1
281
     0
  0
BLOCK_RECORD
  5
101540F
330
1
100
AcDbSymbolTableRecord
100
AcDbBlockTableRecord
  2
*D23
340
0
 70
     0
280
     1
281
     0
  0
BLOCK_RECORD
  5
101541C
330
1
100
AcDbSymbolTableRecord
100
AcDbBlockTableRecord
  2
*D24
340
0
 70
     0
280
     1
281
     0
  0
BLOCK_RECORD
  5
1015437
330
1
100
AcDbSymbolTableRecord
100
AcDbBlockTableRecord
  2
*D25
340
0
 70
     0
280
     1
281
     0
  0
BLOCK_RECORD
  5
1015444
330
1
100
AcDbSymbolTableRecord
100
AcDbBlockTableRecord
  2
*D26
340
0
 70
     0
280
     1
281
     0
  0
BLOCK_RECORD
  5
1015451
330
1
100
AcDbSymbolTableRecord
100
AcDbBlockTableRecord
  2
*D27
340
0
 70
     0
280
     1
281
     0
  0
BLOCK_RECORD
  5
101545F
330
1
100
AcDbSymbolTableRecord
100
AcDbBlockTableRecord
  2
*D28
340
0
 70
     0
280
     1
281
     0
  0
BLOCK_RECORD
  5
1015469
330
1
100
AcDbSymbolTableRecord
100
AcDbBlockTableRecord
  2
*D29
340
0
 70
     0
280
     1
281
     0
  0
BLOCK_RECORD
  5
1015476
330
1
100
AcDbSymbolTableRecord
100
AcDbBlockTableRecord
  2
*D30
340
0
 70
     0
280
     1
281
     0
  0
BLOCK_RECORD
  5
1015483
330
1
100
AcDbSymbolTableRecord
100
AcDbBlockTableRecord
  2
*D31
340
0
 70
     0
280
     1
281
     0
  0
BLOCK_RECORD
  5
1015490
330
1
100
AcDbSymbolTableRecord
100
AcDbBlockTableRecord
  2
*D32
340
0
 70
     0
280
     1
281
     0
  0
BLOCK_RECORD
  5
101549E
330
1
100
AcDbSymbolTableRecord
100
AcDbBlockTableRecord
  2
*D33
340
0
 70
     0
280
     1
281
     0
  0
BLOCK_RECORD
  5
10154AB
330
1
100
AcDbSymbolTableRecord
100
AcDbBlockTableRecord
  2
*D34
340
0
 70
     0
280
     1
281
     0
  0
BLOCK_RECORD
  5
10154B8
330
1
100
AcDbSymbolTableRecord
100
AcDbBlockTableRecord
  2
*D35
340
0
 70
     0
280
     1
281
     0
  0
BLOCK_RECORD
  5
10154C5
330
1
100
AcDbSymbolTableRecord
100
AcDbBlockTableRecord
  2
*D36
340
0
 70
     0
280
     1
281
     0
  0
BLOCK_RECORD
  5
10154D2
330
1
100
AcDbSymbolTableRecord
100
AcDbBlockTableRecord
  2
*D37
340
0
 70
     0
280
     1
281
     0
  0
BLOCK_RECORD
  5
10154DF
330
1
100
AcDbSymbolTableRecord
100
AcDbBlockTableRecord
  2
*D38
340
0
 70
     0
280
     1
281
     0
  0
BLOCK_RECORD
  5
1015871
330
1
100
AcDbSymbolTableRecord
100
AcDbBlockTableRecord
  2
*D39
340
0
 70
     0
280
     1
281
     0
  0
BLOCK_RECORD
  5
1015894
330
1
100
AcDbSymbolTableRecord
100
AcDbBlockTableRecord
  2
*D40
340
0
 70
     0
280
     1
281
     0
  0
BLOCK_RECORD
  5
1015AA3
330
1
100
AcDbSymbolTableRecord
100
AcDbBlockTableRecord
  2
*D41
340
0
 70
     0
280
     1
281
     0
  0
ENDTAB
  0
ENDSEC
  0
SECTION
  2
BLOCKS
  0
BLOCK
  5
20
330
1F
100
AcDbEntity
  8
0
100
AcDbBlockBegin
  2
*MODEL_SPACE
 70
     0
 10
0.0
 20
0.0
 30
0.0
  3
*MODEL_SPACE
  1

  0
ENDBLK
  5
21
330
1F
100
AcDbEntity
  8
0
100
AcDbBlockEnd
  0
BLOCK
  5
1C
330
1B
100
AcDbEntity
 67
     1
  8
0
100
AcDbBlockBegin
  2
*PAPER_SPACE
 70
     0
 10
0.0
 20
0.0
 30
0.0
  3
*PAPER_SPACE
  1

  0
ENDBLK
  5
1D
330
1B
100
AcDbEntity
 67
     1
  8
0
100
AcDbBlockEnd
  0
BLOCK
  5
10152CE
330
10152CD
100
AcDbEntity
  8
0
100
AcDbBlockBegin
  2
*D0
 70
     1
 10
0.0
 20
0.0
 30
0.0
  3
*D0
  1

  0
LINE
  5
1015C53
330
10152CD
100
AcDbEntity
  8
quote
 62
     0
440
 16777216
370
    -2
100
AcDbLine
 10
554.0970277411103
 20
522.4554639270504
 30
0.0
 11
569.0043639939069
 21
512.7183831636471
 31
0.0
  0
MTEXT
  5
1015C54
330
10152CD
100
AcDbEntity
  8
quote
 62
     0
440
 16777216
100
AcDbMText
 10
547.7340997225033
 20
526.6115614992961
 30
0.0
 40
6.0
 41
0.0
 46
0.0
 71
     5
 72
     1
  1
\A1;∅60
 11
0.8372273708693358
 21
-0.5468549437165397
 31
0.0
 73
     1
 44
1.0
  0
SOLID
  5
1015C55
330
10152CD
100
AcDbEntity
  8
quote
 62
     0
440
 16777216
100
AcDbTrace
 10
569.3689339563844
 20
513.2765347442266
 30
0.0
 11
568.6397940314291
 21
512.1602315830675
 31
0.0
 12
572.3532734773841
 22
510.5309633887809
 32
0.0
 13
572.3532734773841
 23
510.5309633887809
 33
0.0
  0
LINE
  5
1015C56
330
10152CD
100
AcDbEntity
  8
quote
 62
     0
440
 16777216
370
    -2
100
AcDbLine
 10
597.3800946034644
 20
494.1253150772847
 30
0.0
 11
597.5600946034644
 21
494.1253150772846
 31
0.0
  0
LINE
  5
1015C57
330
10152CD
100
AcDbEntity
  8
quote
 62
     0
440
 16777216
370
    -2
100
AcDbLine
 10
597.4700946034644
 20
494.0353150772847
 30
0.0
 11
597.4700946034645
 21
494.2153150772846
 31
0.0
  0
POINT
  5
1015C58
330
10152CD
100
AcDbEntity
  8
Defpoints
 62
     0
440
 16777216
100
AcDbPoint
 10
572.3532734773841
 20
510.5309633887809
 30
0.0
  0
POINT
  5
1015C59
330
10152CD
100
AcDbEntity
  8
Defpoints
 62
     0
440
 16777216
100
AcDbPoint
 10
622.5869157295447
 20
477.7196667657883
 30
0.0
  0
ENDBLK
  5
10152CF
330
10152CD
100
AcDbEntity
  8
0
100
AcDbBlockEnd
  0
BLOCK
  5
10152D8
330
10152D7
100
AcDbEntity
  8
0
100
AcDbBlockBegin
  2
*D1
 70
     1
 10
0.0
 20
0.0
 30
0.0
  3
*D1
  1

  0
LINE
  5
1015C49
330
10152D7
100
AcDbEntity
  8
quote
 62
     0
440
 16777216
370
    -2
100
AcDbLine
 10
497.4075946034647
 20
564.1253150772845
 30
0.0
 11
478.6789359988815
 21
564.1253150772845
 31
0.0
  0
LINE
  5
1015C4A
330
10152D7
100
AcDbEntity
  8
quote
 62
     0
440
 16777216
370
    -2
100
AcDbLine
 10
497.4075946034647
 20
332.1253150772847
 30
0.0
 11
478.6789359988816
 21
332.1253150772847
 31
0.0
  0
LINE
  5
1015C4B
330
10152D7
100
AcDbEntity
  8
quote
 62
     0
440
 16777216
370
    -2
100
AcDbLine
 10
478.8589359988815
 20
560.1253150772845
 30
0.0
 11
478.8589359988815
 21
456.2253150772846
 31
0.0
  0
LINE
  5
1015C4C
330
10152D7
100
AcDbEntity
  8
quote
 62
     0
440
 16777216
370
    -2
100
AcDbLine
 10
478.8589359988816
 20
336.1253150772847
 30
0.0
 11
478.8589359988815
 21
440.0253150772846
 31
0.0
  0
SOLID
  5
1015C4D
330
10152D7
100
AcDbEntity
  8
quote
 62
     0
440
 16777216
100
AcDbTrace
 10
478.1922693322148
 20
560.1253150772845
 30
0.0
 11
479.5256026655482
 21
560.1253150772845
 31
0.0
 12
478.8589359988815
 22
564.1253150772845
 32
0.0
 13
478.8589359988815
 23
564.1253150772845
 33
0.0
  0
SOLID
  5
1015C4E
330
10152D7
100
AcDbEntity
  8
quote
 62
     0
440
 16777216
100
AcDbTrace
 10
478.1922693322149
 20
336.1253150772847
 30
0.0
 11
479.5256026655483
 21
336.1253150772847
 31
0.0
 12
478.8589359988816
 22
332.1253150772847
 32
0.0
 13
478.8589359988816
 23
332.1253150772847
 33
0.0
  0
MTEXT
  5
1015C4F
330
10152D7
100
AcDbEntity
  8
quote
 62
     0
440
 16777216
100
AcDbMText
 10
478.8589359988815
 20
448.1253150772843
 30
0.0
 40
6.0
 41
0.0
 46
0.0
 71
     5
 72
     1
  1
\A1;232
 11
0.0000000000000001
 21
1.0
 31
0.0
 73
     1
 44
1.0
  0
POINT
  5
1015C50
330
10152D7
100
AcDbEntity
  8
Defpoints
 62
     0
440
 16777216
100
AcDbPoint
 10
497.4700946034647
 20
564.1253150772845
 30
0.0
  0
POINT
  5
1015C51
330
10152D7
100
AcDbEntity
  8
Defpoints
 62
     0
440
 16777216
100
AcDbPoint
 10
497.4700946034647
 20
332.1253150772847
 30
0.0
  0
POINT
  5
1015C52
330
10152D7
100
AcDbEntity
  8
Defpoints
 62
     0
440
 16777216
100
AcDbPoint
 10
478.8589359988816
 20
332.1253150772847
 30
0.0
  0
ENDBLK
  5
10152D9
330
10152D7
100
AcDbEntity
  8
0
100
AcDbBlockEnd
  0
BLOCK
  5
10152E5
330
10152E4
100
AcDbEntity
  8
0
100
AcDbBlockBegin
  2
*D2
 70
     1
 10
0.0
 20
0.0
 30
0.0
  3
*D2
  1

  0
LINE
  5
1015C3F
330
10152E4
100
AcDbEntity
  8
quote
 62
     0
440
 16777216
370
    -2
100
AcDbLine
 10
497.4700946034645
 20
332.0628150772845
 30
0.0
 11
497.4700946034645
 21
292.0245762593616
 31
0.0
  0
LINE
  5
1015C40
330
10152E4
100
AcDbEntity
  8
quote
 62
     0
440
 16777216
370
    -2
100
AcDbLine
 10
870.4700946034641
 20
332.0628150772845
 30
0.0
 11
870.4700946034641
 21
292.0245762593616
 31
0.0
  0
LINE
  5
1015C41
330
10152E4
100
AcDbEntity
  8
quote
 62
     0
440
 16777216
370
    -2
100
AcDbLine
 10
501.4700946034645
 20
292.2045762593616
 30
0.0
 11
675.8700946034642
 21
292.2045762593616
 31
0.0
  0
LINE
  5
1015C42
330
10152E4
100
AcDbEntity
  8
quote
 62
     0
440
 16777216
370
    -2
100
AcDbLine
 10
866.470094603464
 20
292.2045762593616
 30
0.0
 11
692.0700946034643
 21
292.2045762593616
 31
0.0
  0
SOLID
  5
1015C43
330
10152E4
100
AcDbEntity
  8
quote
 62
     0
440
 16777216
100
AcDbTrace
 10
501.4700946034645
 20
292.8712429260283
 30
0.0
 11
501.4700946034645
 21
291.5379095926949
 31
0.0
 12
497.4700946034645
 22
292.2045762593616
 32
0.0
 13
497.4700946034645
 23
292.2045762593616
 33
0.0
  0
SOLID
  5
1015C44
330
10152E4
100
AcDbEntity
  8
quote
 62
     0
440
 16777216
100
AcDbTrace
 10
866.470094603464
 20
292.8712429260283
 30
0.0
 11
866.470094603464
 21
291.5379095926949
 31
0.0
 12
870.4700946034641
 22
292.2045762593616
 32
0.0
 13
870.4700946034641
 23
292.2045762593616
 33
0.0
  0
MTEXT
  5
1015C45
330
10152E4
100
AcDbEntity
  8
quote
 62
     0
440
 16777216
100
AcDbMText
 10
683.9700946034643
 20
292.2045762593616
 30
0.0
 40
6.0
 41
0.0
 46
0.0
 71
     5
 72
     1
  1
\A1;373
 73
     1
 44
1.0
  0
POINT
  5
1015C46
330
10152E4
100
AcDbEntity
  8
Defpoints
 62
     0
440
 16777216
100
AcDbPoint
 10
497.4700946034645
 20
332.1253150772845
 30
0.0
  0
POINT
  5
1015C47
330
10152E4
100
AcDbEntity
  8
Defpoints
 62
     0
440
 16777216
100
AcDbPoint
 10
870.4700946034641
 20
332.1253150772845
 30
0.0
  0
POINT
  5
1015C48
330
10152E4
100
AcDbEntity
  8
Defpoints
 62
     0
440
 16777216
100
AcDbPoint
 10
870.4700946034641
 20
292.2045762593616
 30
0.0
  0
ENDBLK
  5
10152E6
330
10152E4
100
AcDbEntity
  8
0
100
AcDbBlockEnd
  0
BLOCK
  5
10152F2
330
10152F1
100
AcDbEntity
  8
0
100
AcDbBlockBegin
  2
*D3
 70
     1
 10
0.0
 20
0.0
 30
0.0
  3
*D3
  1

  0
ARC
  5
1015C35
330
10152F1
100
AcDbEntity
  8
quote
 62
     0
440
 16777216
370
    -2
100
AcDbCircle
 10
666.7543658509262
 20
564.1253150772845
 30
0.0
 40
13.81676430867542
100
AcDbArc
 50
196.6458008841973
 51
208.362628372382
  0
ARC
  5
1015C36
330
10152F1
100
AcDbEntity
  8
quote
 62
     0
440
 16777216
370
    -2
100
AcDbCircle
 10
666.7543658509262
 20
564.1253150772845
 30
0.0
 40
13.81676430867542
100
AcDbArc
 50
286.637371627618
 51
298.3541991158027
  0
SOLID
  5
1015C37
330
10152F1
100
AcDbEntity
  8
quote
 62
     0
440
 16777216
100
AcDbTrace
 10
652.8569629651634
 20
560.0709418995506
 30
0.0
 11
654.1762536485953
 21
560.2639441544267
 31
0.0
 12
652.9376015422508
 22
564.1253150772846
 32
0.0
 13
652.9376015422508
 23
564.1253150772846
 33
0.0
  0
SOLID
  5
1015C38
330
10152F1
100
AcDbEntity
  8
quote
 62
     0
440
 16777216
100
AcDbTrace
 10
672.9180327194903
 20
552.5008450802618
 30
0.0
 11
673.7144389048942
 21
551.4314924884436
 31
0.0
 12
676.524293587647
 22
554.355387340564
 32
0.0
 13
676.524293587647
 23
554.355387340564
 33
0.0
  0
MTEXT
  5
1015C39
330
10152F1
100
AcDbEntity
  8
quote
 62
     0
440
 16777216
100
AcDbMText
 10
661.4669190611029
 20
551.360289326967
 30
0.0
 40
6.0
 41
0.0
 46
0.0
 71
     5
 72
     1
  1
\A1;135\U+00B0
 11
0.9238795325112869
 21
-0.3826834323650894
 31
0.0
 73
     1
 44
1.0
  0
POINT
  5
1015C3A
330
10152F1
100
AcDbEntity
  8
Defpoints
 62
     0
440
 16777216
100
AcDbPoint
 10
656.9844381142056
 20
554.355387340564
 30
0.0
  0
POINT
  5
1015C3B
330
10152F1
100
AcDbEntity
  8
Defpoints
 62
     0
440
 16777216
100
AcDbPoint
 10
666.7543658509262
 20
564.1253150772845
 30
0.0
  0
POINT
  5
1015C3C
330
10152F1
100
AcDbEntity
  8
Defpoints
 62
     0
440
 16777216
100
AcDbPoint
 10
870.4700946034641
 20
360.4095863247473
 30
0.0
  0
POINT
  5
1015C3D
330
10152F1
100
AcDbEntity
  8
Defpoints
 62
     0
440
 16777216
100
AcDbPoint
 10
666.7543658509262
 20
564.1253150772845
 30
0.0
  0
POINT
  5
1015C3E
330
10152F1
100
AcDbEntity
  8
Defpoints
 62
     0
440
 16777216
100
AcDbPoint
 10
497.4700946034645
 20
564.1253150772847
 30
0.0
  0
ENDBLK
  5
10152F3
330
10152F1
100
AcDbEntity
  8
0
100
AcDbBlockEnd
  0
BLOCK
  5
10152FF
330
10152FE
100
AcDbEntity
  8
0
100
AcDbBlockBegin
  2
*D4
 70
     1
 10
0.0
 20
0.0
 30
0.0
  3
*D4
  1

  0
LINE
  5
1015C2B
330
10152FE
100
AcDbEntity
  8
quote
 62
     0
440
 16777216
370
    -2
100
AcDbLine
 10
870.5325946034646
 20
332.1253150772847
 30
0.0
 11
885.079095296467
 21
332.1253150772847
 31
0.0
  0
LINE
  5
1015C2C
330
10152FE
100
AcDbEntity
  8
quote
 62
     0
440
 16777216
370
    -2
100
AcDbLine
 10
870.5325946034646
 20
360.4095863247473
 30
0.0
 11
885.079095296467
 21
360.4095863247473
 31
0.0
  0
LINE
  5
1015C2D
330
10152FE
100
AcDbEntity
  8
quote
 62
     0
440
 16777216
370
    -2
100
AcDbLine
 10
884.8990952964671
 20
336.1253150772847
 30
0.0
 11
884.8990952964671
 21
337.1674507010159
 31
0.0
  0
LINE
  5
1015C2E
330
10152FE
100
AcDbEntity
  8
quote
 62
     0
440
 16777216
370
    -2
100
AcDbLine
 10
884.8990952964671
 20
356.4095863247473
 30
0.0
 11
884.8990952964671
 21
355.367450701016
 31
0.0
  0
SOLID
  5
1015C2F
330
10152FE
100
AcDbEntity
  8
quote
 62
     0
440
 16777216
100
AcDbTrace
 10
884.2324286298005
 20
336.1253150772847
 30
0.0
 11
885.5657619631337
 21
336.1253150772847
 31
0.0
 12
884.8990952964671
 22
332.1253150772847
 32
0.0
 13
884.8990952964671
 23
332.1253150772847
 33
0.0
  0
SOLID
  5
1015C30
330
10152FE
100
AcDbEntity
  8
quote
 62
     0
440
 16777216
100
AcDbTrace
 10
884.2324286298005
 20
356.4095863247473
 30
0.0
 11
885.5657619631337
 21
356.4095863247473
 31
0.0
 12
884.8990952964671
 22
360.4095863247473
 32
0.0
 13
884.8990952964671
 23
360.4095863247473
 33
0.0
  0
MTEXT
  5
1015C31
330
10152FE
100
AcDbEntity
  8
quote
 62
     0
440
 16777216
100
AcDbMText
 10
884.8990952964669
 20
346.2674507010157
 30
0.0
 40
6.0
 41
0.0
 46
0.0
 71
     5
 72
     1
  1
\A1;28.3
 11
0.0000000000000001
 21
1.0
 31
0.0
 73
     1
 44
1.0
  0
POINT
  5
1015C32
330
10152FE
100
AcDbEntity
  8
Defpoints
 62
     0
440
 16777216
100
AcDbPoint
 10
870.4700946034645
 20
332.1253150772847
 30
0.0
  0
POINT
  5
1015C33
330
10152FE
100
AcDbEntity
  8
Defpoints
 62
     0
440
 16777216
100
AcDbPoint
 10
870.4700946034645
 20
360.4095863247473
 30
0.0
  0
POINT
  5
1015C34
330
10152FE
100
AcDbEntity
  8
Defpoints
 62
     0
440
 16777216
100
AcDbPoint
 10
884.8990952964671
 20
360.4095863247473
 30
0.0
  0
ENDBLK
  5
1015300
330
10152FE
100
AcDbEntity
  8
0
100
AcDbBlockEnd
  0
BLOCK
  5
101530C
330
101530B
100
AcDbEntity
  8
0
100
AcDbBlockBegin
  2
*D5
 70
     1
 10
0.0
 20
0.0
 30
0.0
  3
*D5
  1

  0
ARC
  5
1015C21
330
101530B
100
AcDbEntity
  8
quote
 62
     0
440
 16777216
370
    -2
100
AcDbCircle
 10
870.4700946034639
 20
360.4095863247471
 30
0.0
 40
14.49704809309295
100
AcDbArc
 50
150.8595329803207
 51
164.3284035649412
  0
ARC
  5
1015C22
330
101530B
100
AcDbEntity
  8
quote
 62
     0
440
 16777216
370
    -2
100
AcDbCircle
 10
870.4700946034639
 20
360.4095863247471
 30
0.0
 40
14.49704809309295
100
AcDbArc
 50
240.6715964350588
 51
254.1404670196794
  0
SOLID
  5
1015C23
330
101530B
100
AcDbEntity
  8
quote
 62
     0
440
 16777216
100
AcDbTrace
 10
857.276027949986
 20
367.8708208935089
 30
0.0
 11
858.3398908856603
 21
367.0670961695665
 31
0.0
 12
860.2191335896504
 22
370.6605473385605
 32
0.0
 13
860.2191335896504
 23
370.6605473385605
 33
0.0
  0
SOLID
  5
1015C24
330
101530B
100
AcDbEntity
  8
quote
 62
     0
440
 16777216
100
AcDbTrace
 10
866.6003156545187
 20
347.1246666616258
 30
0.0
 11
866.4163701609576
 21
345.8040827630505
 31
0.0
 12
870.4700946034639
 22
345.9125382316541
 32
0.0
 13
870.4700946034639
 23
345.9125382316541
 33
0.0
  0
MTEXT
  5
1015C25
330
101530B
100
AcDbEntity
  8
quote
 62
     0
440
 16777216
100
AcDbMText
 10
857.0765685884236
 20
354.8618062013203
 30
0.0
 40
6.0
 41
0.0
 46
0.0
 71
     5
 72
     1
  1
\A1;135\U+00B0
 11
0.3826834323650903
 21
-0.9238795325112867
 31
0.0
 73
     1
 44
1.0
  0
POINT
  5
1015C26
330
101530B
100
AcDbEntity
  8
Defpoints
 62
     0
440
 16777216
100
AcDbPoint
 10
855.973046510371
 20
360.409586324747
 30
0.0
  0
POINT
  5
1015C27
330
101530B
100
AcDbEntity
  8
Defpoints
 62
     0
440
 16777216
100
AcDbPoint
 10
870.4700946034639
 20
360.4095863247471
 30
0.0
  0
POINT
  5
1015C28
330
101530B
100
AcDbEntity
  8
Defpoints
 62
     0
440
 16777216
100
AcDbPoint
 10
870.4700946034641
 20
332.1253150772844
 30
0.0
  0
POINT
  5
1015C29
330
101530B
100
AcDbEntity
  8
Defpoints
 62
     0
440
 16777216
100
AcDbPoint
 10
870.4700946034639
 20
360.4095863247471
 30
0.0
  0
POINT
  5
1015C2A
330
101530B
100
AcDbEntity
  8
Defpoints
 62
     0
440
 16777216
100
AcDbPoint
 10
666.754365850926
 20
564.1253150772842
 30
0.0
  0
ENDBLK
  5
101530D
330
101530B
100
AcDbEntity
  8
0
100
AcDbBlockEnd
  0
BLOCK
  5
1015319
330
1015318
100
AcDbEntity
  8
0
100
AcDbBlockBegin
  2
*D6
 70
     1
 10
0.0
 20
0.0
 30
0.0
  3
*D6
  1

  0
LINE
  5
1015C17
330
1015318
100
AcDbEntity
  8
quote
 62
     0
440
 16777216
370
    -2
100
AcDbLine
 10
567.4700946034645
 20
494.1878150772845
 30
0.0
 11
567.4700946034645
 21
494.3053150772845
 31
0.0
  0
LINE
  5
1015C18
330
1015318
100
AcDbEntity
  8
quote
 62
     0
440
 16777216
370
    -2
100
AcDbLine
 10
497.4700946034645
 20
494.1878150772845
 30
0.0
 11
497.4700946034645
 21
494.3053150772845
 31
0.0
  0
LINE
  5
1015C19
330
1015318
100
AcDbEntity
  8
quote
 62
     0
440
 16777216
370
    -2
100
AcDbLine
 10
563.4700946034645
 20
494.1253150772845
 30
0.0
 11
537.0700946034645
 21
494.1253150772845
 31
0.0
  0
LINE
  5
1015C1A
330
1015318
100
AcDbEntity
  8
quote
 62
     0
440
 16777216
370
    -2
100
AcDbLine
 10
501.4700946034645
 20
494.1253150772845
 30
0.0
 11
527.8700946034645
 21
494.1253150772845
 31
0.0
  0
SOLID
  5
1015C1B
330
1015318
100
AcDbEntity
  8
quote
 62
     0
440
 16777216
100
AcDbTrace
 10
563.4700946034645
 20
494.7919817439512
 30
0.0
 11
563.4700946034645
 21
493.4586484106178
 31
0.0
 12
567.4700946034645
 22
494.1253150772845
 32
0.0
 13
567.4700946034645
 23
494.1253150772845
 33
0.0
  0
SOLID
  5
1015C1C
330
1015318
100
AcDbEntity
  8
quote
 62
     0
440
 16777216
100
AcDbTrace
 10
501.4700946034645
 20
494.7919817439512
 30
0.0
 11
501.4700946034645
 21
493.4586484106178
 31
0.0
 12
497.4700946034645
 22
494.1253150772845
 32
0.0
 13
497.4700946034645
 23
494.1253150772845
 33
0.0
  0
MTEXT
  5
1015C1D
330
1015318
100
AcDbEntity
  8
quote
 62
     0
440
 16777216
100
AcDbMText
 10
532.4700946034645
 20
494.1253150772845
 30
0.0
 40
6.0
 41
0.0
 46
0.0
 71
     5
 72
     1
  1
\A1;70
 73
     1
 44
1.0
  0
POINT
  5
1015C1E
330
1015318
100
AcDbEntity
  8
Defpoints
 62
     0
440
 16777216
100
AcDbPoint
 10
567.4700946034645
 20
494.1253150772845
 30
0.0
  0
POINT
  5
1015C1F
330
1015318
100
AcDbEntity
  8
Defpoints
 62
     0
440
 16777216
100
AcDbPoint
 10
497.4700946034645
 20
494.1253150772845
 30
0.0
  0
POINT
  5
1015C20
330
1015318
100
AcDbEntity
  8
Defpoints
 62
     0
440
 16777216
100
AcDbPoint
 10
497.4700946034645
 20
494.1253150772845
 30
0.0
  0
ENDBLK
  5
101531A
330
1015318
100
AcDbEntity
  8
0
100
AcDbBlockEnd
  0
BLOCK
  5
1015326
330
1015325
100
AcDbEntity
  8
0
100
AcDbBlockBegin
  2
*D7
 70
     1
 10
0.0
 20
0.0
 30
0.0
  3
*D7
  1

  0
LINE
  5
1015C0D
330
1015325
100
AcDbEntity
  8
quote
 62
     0
440
 16777216
370
    -2
100
AcDbLine
 10
597.5325946034647
 20
524.1253150772847
 30
0.0
 11
597.650094603469
 21
524.1253150772847
 31
0.0
  0
LINE
  5
1015C0E
330
1015325
100
AcDbEntity
  8
quote
 62
     0
440
 16777216
370
    -2
100
AcDbLine
 10
597.5325946034647
 20
564.1253150772847
 30
0.0
 11
597.650094603469
 21
564.1253150772847
 31
0.0
  0
LINE
  5
1015C0F
330
1015325
100
AcDbEntity
  8
quote
 62
     0
440
 16777216
370
    -2
100
AcDbLine
 10
597.470094603469
 20
528.1253150772847
 30
0.0
 11
597.470094603469
 21
539.5253150772847
 31
0.0
  0
LINE
  5
1015C10
330
1015325
100
AcDbEntity
  8
quote
 62
     0
440
 16777216
370
    -2
100
AcDbLine
 10
597.470094603469
 20
560.1253150772847
 30
0.0
 11
597.470094603469
 21
548.7253150772848
 31
0.0
  0
SOLID
  5
1015C11
330
1015325
100
AcDbEntity
  8
quote
 62
     0
440
 16777216
100
AcDbTrace
 10
596.8034279368024
 20
528.1253150772847
 30
0.0
 11
598.1367612701356
 21
528.1253150772847
 31
0.0
 12
597.470094603469
 22
524.1253150772847
 32
0.0
 13
597.470094603469
 23
524.1253150772847
 33
0.0
  0
SOLID
  5
1015C12
330
1015325
100
AcDbEntity
  8
quote
 62
     0
440
 16777216
100
AcDbTrace
 10
596.8034279368024
 20
560.1253150772847
 30
0.0
 11
598.1367612701356
 21
560.1253150772847
 31
0.0
 12
597.470094603469
 22
564.1253150772847
 32
0.0
 13
597.470094603469
 23
564.1253150772847
 33
0.0
  0
MTEXT
  5
1015C13
330
1015325
100
AcDbEntity
  8
quote
 62
     0
440
 16777216
100
AcDbMText
 10
597.470094603469
 20
544.1253150772845
 30
0.0
 40
6.0
 41
0.0
 46
0.0
 71
     5
 72
     1
  1
\A1;40
 11
0.0000000000000001
 21
1.0
 31
0.0
 73
     1
 44
1.0
  0
POINT
  5
1015C14
330
1015325
100
AcDbEntity
  8
Defpoints
 62
     0
440
 16777216
100
AcDbPoint
 10
597.4700946034647
 20
524.1253150772847
 30
0.0
  0
POINT
  5
1015C15
330
1015325
100
AcDbEntity
  8
Defpoints
 62
     0
440
 16777216
100
AcDbPoint
 10
597.4700946034647
 20
564.1253150772847
 30
0.0
  0
POINT
  5
1015C16
330
1015325
100
AcDbEntity
  8
Defpoints
 62
     0
440
 16777216
100
AcDbPoint
 10
597.470094603469
 20
564.1253150772847
 30
0.0
  0
ENDBLK
  5
1015327
330
1015325
100
AcDbEntity
  8
0
100
AcDbBlockEnd
  0
BLOCK
  5
1015333
330
1015332
100
AcDbEntity
  8
0
100
AcDbBlockBegin
  2
*D8
 70
     1
 10
0.0
 20
0.0
 30
0.0
  3
*D8
  1

  0
LINE
  5
1015C02
330
1015332
100
AcDbEntity
  8
quote
 62
     0
440
 16777216
370
    -2
100
AcDbLine
 10
582.0497302271958
 20
564.1253150772847
 30
0.0
 11
575.0180086571252
 21
564.1253150772847
 31
0.0
  0
LINE
  5
1015C03
330
1015332
100
AcDbEntity
  8
quote
 62
     0
440
 16777216
370
    -2
100
AcDbLine
 10
582.0575946034648
 20
554.1253150772845
 30
0.0
 11
575.0180086571252
 21
554.1253150772845
 31
0.0
  0
LINE
  5
1015C04
330
1015332
100
AcDbEntity
  8
quote
 62
     0
440
 16777216
370
    -2
100
AcDbLine
 10
575.1980086571252
 20
560.1253150772847
 30
0.0
 11
575.1980086571252
 21
558.1253150772845
 31
0.0
  0
LINE
  5
1015C05
330
1015332
100
AcDbEntity
  8
quote
 62
     0
440
 16777216
370
    -2
100
AcDbLine
 10
575.1980086571252
 20
559.1253150772846
 30
0.0
 11
569.8980086571191
 21
566.5270826815781
 31
0.0
  0
LINE
  5
1015C06
330
1015332
100
AcDbEntity
  8
quote
 62
     0
440
 16777216
370
    -2
100
AcDbLine
 10
569.8980086571191
 20
566.5270826815781
 30
0.0
 11
569.8980086571191
 21
566.7270826815781
 31
0.0
  0
MTEXT
  5
1015C07
330
1015332
100
AcDbEntity
  8
quote
 62
     0
440
 16777216
100
AcDbMText
 10
569.8980086571191
 20
570.3270826815778
 30
0.0
 40
6.0
 41
0.0
 46
0.0
 71
     5
 72
     1
  1
\A1;10
 11
0.0000000000000001
 21
1.0
 31
0.0
 73
     1
 44
1.0
  0
SOLID
  5
1015C08
330
1015332
100
AcDbEntity
  8
quote
 62
     0
440
 16777216
100
AcDbTrace
 10
574.5313419904586
 20
560.1253150772847
 30
0.0
 11
575.8646753237918
 21
560.1253150772847
 31
0.0
 12
575.1980086571252
 22
564.1253150772847
 32
0.0
 13
575.1980086571252
 23
564.1253150772847
 33
0.0
  0
SOLID
  5
1015C09
330
1015332
100
AcDbEntity
  8
quote
 62
     0
440
 16777216
100
AcDbTrace
 10
574.5313419904586
 20
558.1253150772845
 30
0.0
 11
575.8646753237918
 21
558.1253150772845
 31
0.0
 12
575.1980086571252
 22
554.1253150772845
 32
0.0
 13
575.1980086571252
 23
554.1253150772845
 33
0.0
  0
POINT
  5
1015C0A
330
1015332
100
AcDbEntity
  8
Defpoints
 62
     0
440
 16777216
100
AcDbPoint
 10
582.1122302271958
 20
564.1253150772847
 30
0.0
  0
POINT
  5
1015C0B
330
1015332
100
AcDbEntity
  8
Defpoints
 62
     0
440
 16777216
100
AcDbPoint
 10
582.1200946034648
 20
554.1253150772845
 30
0.0
  0
POINT
  5
1015C0C
330
1015332
100
AcDbEntity
  8
Defpoints
 62
     0
440
 16777216
100
AcDbPoint
 10
575.1980086571252
 20
554.1253150772845
 30
0.0
  0
ENDBLK
  5
1015334
330
1015332
100
AcDbEntity
  8
0
100
AcDbBlockEnd
  0
BLOCK
  5
1015341
330
1015340
100
AcDbEntity
  8
0
100
AcDbBlockBegin
  2
*D9
 70
     1
 10
0.0
 20
0.0
 30
0.0
  3
*D9
  1

  0
LINE
  5
1015BFB
330
1015340
100
AcDbEntity
  8
quote
 62
     0
440
 16777216
370
    -2
100
AcDbLine
 10
591.7581665239407
 20
346.6359620110949
 30
0.0
 11
588.2968012259513
 21
344.6312300405125
 31
0.0
  0
MTEXT
  5
1015BFC
330
1015340
100
AcDbEntity
  8
quote
 62
     0
440
 16777216
100
AcDbMText
 10
596.1714072788772
 20
349.1919952735873
 30
0.0
 40
6.0
 41
0.0
 46
0.0
 71
     5
 72
     1
  1
\A1;∅2
 11
0.865341324497346
 21
0.5011829926455795
 31
0.0
 73
     1
 44
1.0
  0
SOLID
  5
1015BFD
330
1015340
100
AcDbEntity
  8
quote
 62
     0
440
 16777216
100
AcDbTrace
 10
587.9626792308541
 20
345.2081242568441
 30
0.0
 11
588.6309232210483
 21
344.054335824181
 31
0.0
 12
584.8354359279619
 22
342.6264980699302
 32
0.0
 13
584.8354359279619
 23
342.6264980699302
 33
0.0
  0
LINE
  5
1015BFE
330
1015340
100
AcDbEntity
  8
quote
 62
     0
440
 16777216
370
    -2
100
AcDbLine
 10
583.8800946034647
 20
342.1253150772848
 30
0.0
 11
584.0600946034648
 21
342.1253150772848
 31
0.0
  0
LINE
  5
1015BFF
330
1015340
100
AcDbEntity
  8
quote
 62
     0
440
 16777216
370
    -2
100
AcDbLine
 10
583.9700946034647
 20
342.0353150772848
 30
0.0
 11
583.9700946034647
 21
342.2153150772847
 31
0.0
  0
POINT
  5
1015C00
330
1015340
100
AcDbEntity
  8
Defpoints
 62
     0
440
 16777216
100
AcDbPoint
 10
584.8354359279619
 20
342.6264980699302
 30
0.0
  0
POINT
  5
1015C01
330
1015340
100
AcDbEntity
  8
Defpoints
 62
     0
440
 16777216
100
AcDbPoint
 10
583.1047532789678
 20
341.6241320846394
 30
0.0
  0
ENDBLK
  5
1015342
330
1015340
100
AcDbEntity
  8
0
100
AcDbBlockEnd
  0
BLOCK
  5
101534B
330
101534A
100
AcDbEntity
  8
0
100
AcDbBlockBegin
  2
*D10
 70
     1
 10
0.0
 20
0.0
 30
0.0
  3
*D10
  1

  0
LINE
  5
1015BF0
330
101534A
100
AcDbEntity
  8
quote
 62
     0
440
 16777216
370
    -2
100
AcDbLine
 10
574.4705967671059
 20
342.125315077284
 30
0.0
 11
570.4790721802672
 21
342.125315077284
 31
0.0
  0
LINE
  5
1015BF1
330
101534A
100
AcDbEntity
  8
quote
 62
     0
440
 16777216
370
    -2
100
AcDbLine
 10
570.7215721802606
 20
332.1253150772847
 30
0.0
 11
570.8390721802671
 21
332.1253150772847
 31
0.0
  0
LINE
  5
1015BF2
330
101534A
100
AcDbEntity
  8
quote
 62
     0
440
 16777216
370
    -2
100
AcDbLine
 10
570.6590721802672
 20
338.125315077284
 30
0.0
 11
570.6590721802672
 21
336.1253150772847
 31
0.0
  0
LINE
  5
1015BF3
330
101534A
100
AcDbEntity
  8
quote
 62
     0
440
 16777216
370
    -2
100
AcDbLine
 10
570.6590721802672
 20
337.1253150772843
 30
0.0
 11
562.594404094967
 21
341.4153150772835
 31
0.0
  0
LINE
  5
1015BF4
330
101534A
100
AcDbEntity
  8
quote
 62
     0
440
 16777216
370
    -2
100
AcDbLine
 10
562.594404094967
 20
341.4153150772835
 30
0.0
 11
562.594404094967
 21
341.6153150772835
 31
0.0
  0
MTEXT
  5
1015BF5
330
101534A
100
AcDbEntity
  8
quote
 62
     0
440
 16777216
100
AcDbMText
 10
562.594404094967
 20
345.2153150772833
 30
0.0
 40
6.0
 41
0.0
 46
0.0
 71
     5
 72
     1
  1
\A1;10
 11
0.0000000000000001
 21
1.0
 31
0.0
 73
     1
 44
1.0
  0
SOLID
  5
1015BF6
330
101534A
100
AcDbEntity
  8
quote
 62
     0
440
 16777216
100
AcDbTrace
 10
569.9924055136006
 20
338.125315077284
 30
0.0
 11
571.3257388469338
 21
338.125315077284
 31
0.0
 12
570.6590721802672
 22
342.125315077284
 32
0.0
 13
570.6590721802672
 23
342.125315077284
 33
0.0
  0
SOLID
  5
1015BF7
330
101534A
100
AcDbEntity
  8
quote
 62
     0
440
 16777216
100
AcDbTrace
 10
569.9924055136006
 20
336.1253150772847
 30
0.0
 11
571.3257388469338
 21
336.1253150772847
 31
0.0
 12
570.6590721802672
 22
332.1253150772847
 32
0.0
 13
570.6590721802672
 23
332.1253150772847
 33
0.0
  0
POINT
  5
1015BF8
330
101534A
100
AcDbEntity
  8
Defpoints
 62
     0
440
 16777216
100
AcDbPoint
 10
574.5330967671058
 20
342.125315077284
 30
0.0
  0
POINT
  5
1015BF9
330
101534A
100
AcDbEntity
  8
Defpoints
 62
     0
440
 16777216
100
AcDbPoint
 10
570.6590721802606
 20
332.1253150772847
 30
0.0
  0
POINT
  5
1015BFA
330
101534A
100
AcDbEntity
  8
Defpoints
 62
     0
440
 16777216
100
AcDbPoint
 10
570.6590721802672
 20
332.1253150772847
 30
0.0
  0
ENDBLK
  5
101534C
330
101534A
100
AcDbEntity
  8
0
100
AcDbBlockEnd
  0
BLOCK
  5
1015359
330
1015358
100
AcDbEntity
  8
0
100
AcDbBlockBegin
  2
*D11
 70
     1
 10
0.0
 20
0.0
 30
0.0
  3
*D11
  1

  0
LINE
  5
1015BE6
330
1015358
100
AcDbEntity
  8
quote
 62
     0
440
 16777216
370
    -2
100
AcDbLine
 10
497.4700946034645
 20
332.0628150772845
 30
0.0
 11
497.4700946034645
 21
312.0161014299989
 31
0.0
  0
LINE
  5
1015BE7
330
1015358
100
AcDbEntity
  8
quote
 62
     0
440
 16777216
370
    -2
100
AcDbLine
 10
583.9700946034645
 20
332.0628150772845
 30
0.0
 11
583.9700946034645
 21
312.0161014299989
 31
0.0
  0
LINE
  5
1015BE8
330
1015358
100
AcDbEntity
  8
quote
 62
     0
440
 16777216
370
    -2
100
AcDbLine
 10
501.4700946034645
 20
312.1961014299988
 30
0.0
 11
531.6200946034645
 21
312.1961014299988
 31
0.0
  0
LINE
  5
1015BE9
330
1015358
100
AcDbEntity
  8
quote
 62
     0
440
 16777216
370
    -2
100
AcDbLine
 10
579.9700946034645
 20
312.1961014299988
 30
0.0
 11
549.8200946034645
 21
312.1961014299988
 31
0.0
  0
SOLID
  5
1015BEA
330
1015358
100
AcDbEntity
  8
quote
 62
     0
440
 16777216
100
AcDbTrace
 10
501.4700946034645
 20
312.8627680966655
 30
0.0
 11
501.4700946034645
 21
311.5294347633322
 31
0.0
 12
497.4700946034645
 22
312.1961014299988
 32
0.0
 13
497.4700946034645
 23
312.1961014299988
 33
0.0
  0
SOLID
  5
1015BEB
330
1015358
100
AcDbEntity
  8
quote
 62
     0
440
 16777216
100
AcDbTrace
 10
579.9700946034645
 20
312.8627680966655
 30
0.0
 11
579.9700946034645
 21
311.5294347633322
 31
0.0
 12
583.9700946034645
 22
312.1961014299988
 32
0.0
 13
583.9700946034645
 23
312.1961014299988
 33
0.0
  0
MTEXT
  5
1015BEC
330
1015358
100
AcDbEntity
  8
quote
 62
     0
440
 16777216
100
AcDbMText
 10
540.7200946034645
 20
312.1961014299988
 30
0.0
 40
6.0
 41
0.0
 46
0.0
 71
     5
 72
     1
  1
\A1;86.5
 73
     1
 44
1.0
  0
POINT
  5
1015BED
330
1015358
100
AcDbEntity
  8
Defpoints
 62
     0
440
 16777216
100
AcDbPoint
 10
497.4700946034645
 20
332.1253150772845
 30
0.0
  0
POINT
  5
1015BEE
330
1015358
100
AcDbEntity
  8
Defpoints
 62
     0
440
 16777216
100
AcDbPoint
 10
583.9700946034645
 20
332.1253150772845
 30
0.0
  0
POINT
  5
1015BEF
330
1015358
100
AcDbEntity
  8
Defpoints
 62
     0
440
 16777216
100
AcDbPoint
 10
583.9700946034645
 20
312.1961014299988
 30
0.0
  0
ENDBLK
  5
101535A
330
1015358
100
AcDbEntity
  8
0
100
AcDbBlockEnd
  0
BLOCK
  5
1015366
330
1015365
100
AcDbEntity
  8
0
100
AcDbBlockBegin
  2
*D12
 70
     1
 10
0.0
 20
0.0
 30
0.0
  3
*D12
  1

  0
LINE
  5
1015BDC
330
1015365
100
AcDbEntity
  8
quote
 62
     0
440
 16777216
370
    -2
100
AcDbLine
 10
583.9700946034645
 20
319.9156877767102
 30
0.0
 11
583.9700946034645
 21
312.1961014299989
 31
0.0
  0
LINE
  5
1015BDD
330
1015365
100
AcDbEntity
  8
quote
 62
     0
440
 16777216
370
    -2
100
AcDbLine
 10
683.9700946034645
 20
332.0628150772845
 30
0.0
 11
683.9700946034645
 21
312.1961014299989
 31
0.0
  0
LINE
  5
1015BDE
330
1015365
100
AcDbEntity
  8
quote
 62
     0
440
 16777216
370
    -2
100
AcDbLine
 10
587.9700946034644
 20
312.3761014299989
 30
0.0
 11
627.8700946034645
 21
312.3761014299989
 31
0.0
  0
LINE
  5
1015BDF
330
1015365
100
AcDbEntity
  8
quote
 62
     0
440
 16777216
370
    -2
100
AcDbLine
 10
679.9700946034645
 20
312.3761014299989
 30
0.0
 11
640.0700946034645
 21
312.3761014299989
 31
0.0
  0
SOLID
  5
1015BE0
330
1015365
100
AcDbEntity
  8
quote
 62
     0
440
 16777216
100
AcDbTrace
 10
587.9700946034644
 20
313.0427680966656
 30
0.0
 11
587.9700946034644
 21
311.7094347633322
 31
0.0
 12
583.9700946034645
 22
312.3761014299989
 32
0.0
 13
583.9700946034645
 23
312.3761014299989
 33
0.0
  0
SOLID
  5
1015BE1
330
1015365
100
AcDbEntity
  8
quote
 62
     0
440
 16777216
100
AcDbTrace
 10
679.9700946034645
 20
313.0427680966656
 30
0.0
 11
679.9700946034645
 21
311.7094347633322
 31
0.0
 12
683.9700946034645
 22
312.3761014299989
 32
0.0
 13
683.9700946034645
 23
312.3761014299989
 33
0.0
  0
MTEXT
  5
1015BE2
330
1015365
100
AcDbEntity
  8
quote
 62
     0
440
 16777216
100
AcDbMText
 10
633.9700946034645
 20
312.3761014299989
 30
0.0
 40
6.0
 41
0.0
 46
0.0
 71
     5
 72
     1
  1
\A1;100
 73
     1
 44
1.0
  0
POINT
  5
1015BE3
330
1015365
100
AcDbEntity
  8
Defpoints
 62
     0
440
 16777216
100
AcDbPoint
 10
583.9700946034645
 20
319.9781877767102
 30
0.0
  0
POINT
  5
1015BE4
330
1015365
100
AcDbEntity
  8
Defpoints
 62
     0
440
 16777216
100
AcDbPoint
 10
683.9700946034645
 20
332.1253150772845
 30
0.0
  0
POINT
  5
1015BE5
330
1015365
100
AcDbEntity
  8
Defpoints
 62
     0
440
 16777216
100
AcDbPoint
 10
683.9700946034645
 20
312.3761014299989
 30
0.0
  0
ENDBLK
  5
1015367
330
1015365
100
AcDbEntity
  8
0
100
AcDbBlockEnd
  0
BLOCK
  5
1015373
330
1015372
100
AcDbEntity
  8
0
100
AcDbBlockBegin
  2
*D13
 70
     1
 10
0.0
 20
0.0
 30
0.0
  3
*D13
  1

  0
LINE
  5
1015BD2
330
1015372
100
AcDbEntity
  8
quote
 62
     0
440
 16777216
370
    -2
100
AcDbLine
 10
683.9700946034645
 20
319.9156877767102
 30
0.0
 11
683.9700946034645
 21
312.1961014299989
 31
0.0
  0
LINE
  5
1015BD3
330
1015372
100
AcDbEntity
  8
quote
 62
     0
440
 16777216
370
    -2
100
AcDbLine
 10
783.9700946034645
 20
332.0628150772845
 30
0.0
 11
783.9700946034645
 21
312.1961014299989
 31
0.0
  0
LINE
  5
1015BD4
330
1015372
100
AcDbEntity
  8
quote
 62
     0
440
 16777216
370
    -2
100
AcDbLine
 10
687.9700946034645
 20
312.3761014299989
 30
0.0
 11
727.8700946034645
 21
312.3761014299989
 31
0.0
  0
LINE
  5
1015BD5
330
1015372
100
AcDbEntity
  8
quote
 62
     0
440
 16777216
370
    -2
100
AcDbLine
 10
779.9700946034645
 20
312.3761014299989
 30
0.0
 11
740.0700946034645
 21
312.3761014299989
 31
0.0
  0
SOLID
  5
1015BD6
330
1015372
100
AcDbEntity
  8
quote
 62
     0
440
 16777216
100
AcDbTrace
 10
687.9700946034645
 20
313.0427680966656
 30
0.0
 11
687.9700946034645
 21
311.7094347633322
 31
0.0
 12
683.9700946034645
 22
312.3761014299989
 32
0.0
 13
683.9700946034645
 23
312.3761014299989
 33
0.0
  0
SOLID
  5
1015BD7
330
1015372
100
AcDbEntity
  8
quote
 62
     0
440
 16777216
100
AcDbTrace
 10
779.9700946034645
 20
313.0427680966656
 30
0.0
 11
779.9700946034645
 21
311.7094347633322
 31
0.0
 12
783.9700946034645
 22
312.3761014299989
 32
0.0
 13
783.9700946034645
 23
312.3761014299989
 33
0.0
  0
MTEXT
  5
1015BD8
330
1015372
100
AcDbEntity
  8
quote
 62
     0
440
 16777216
100
AcDbMText
 10
733.9700946034645
 20
312.3761014299989
 30
0.0
 40
6.0
 41
0.0
 46
0.0
 71
     5
 72
     1
  1
\A1;100
 73
     1
 44
1.0
  0
POINT
  5
1015BD9
330
1015372
100
AcDbEntity
  8
Defpoints
 62
     0
440
 16777216
100
AcDbPoint
 10
683.9700946034645
 20
319.9781877767102
 30
0.0
  0
POINT
  5
1015BDA
330
1015372
100
AcDbEntity
  8
Defpoints
 62
     0
440
 16777216
100
AcDbPoint
 10
783.9700946034645
 20
332.1253150772845
 30
0.0
  0
POINT
  5
1015BDB
330
1015372
100
AcDbEntity
  8
Defpoints
 62
     0
440
 16777216
100
AcDbPoint
 10
783.9700946034645
 20
312.3761014299989
 30
0.0
  0
ENDBLK
  5
1015374
330
1015372
100
AcDbEntity
  8
0
100
AcDbBlockEnd
  0
BLOCK
  5
1015380
330
101537F
100
AcDbEntity
  8
0
100
AcDbBlockBegin
  2
*D14
 70
     1
 10
0.0
 20
0.0
 30
0.0
  3
*D14
  1

  0
LINE
  5
1015BC8
330
101537F
100
AcDbEntity
  8
quote
 62
     0
440
 16777216
370
    -2
100
AcDbLine
 10
824.1773430787061
 20
564.1865802790452
 30
0.0
 11
824.1773430787061
 21
581.2171155240569
 31
0.0
  0
LINE
  5
1015BC9
330
101537F
100
AcDbEntity
  8
quote
 62
     0
440
 16777216
370
    -2
100
AcDbLine
 10
937.1763142513355
 20
564.1807667394828
 30
0.0
 11
937.1763142513355
 21
581.2171155240569
 31
0.0
  0
LINE
  5
1015BCA
330
101537F
100
AcDbEntity
  8
quote
 62
     0
440
 16777216
370
    -2
100
AcDbLine
 10
828.1773430787062
 20
581.037115524057
 30
0.0
 11
874.5768286650207
 21
581.037115524057
 31
0.0
  0
LINE
  5
1015BCB
330
101537F
100
AcDbEntity
  8
quote
 62
     0
440
 16777216
370
    -2
100
AcDbLine
 10
933.1763142513354
 20
581.037115524057
 30
0.0
 11
886.7768286650209
 21
581.037115524057
 31
0.0
  0
SOLID
  5
1015BCC
330
101537F
100
AcDbEntity
  8
quote
 62
     0
440
 16777216
100
AcDbTrace
 10
828.1773430787062
 20
581.7037821907237
 30
0.0
 11
828.1773430787062
 21
580.3704488573904
 31
0.0
 12
824.1773430787061
 22
581.037115524057
 32
0.0
 13
824.1773430787061
 23
581.037115524057
 33
0.0
  0
SOLID
  5
1015BCD
330
101537F
100
AcDbEntity
  8
quote
 62
     0
440
 16777216
100
AcDbTrace
 10
933.1763142513354
 20
581.7037821907237
 30
0.0
 11
933.1763142513354
 21
580.3704488573904
 31
0.0
 12
937.1763142513355
 22
581.037115524057
 32
0.0
 13
937.1763142513355
 23
581.037115524057
 33
0.0
  0
MTEXT
  5
1015BCE
330
101537F
100
AcDbEntity
  8
quote
 62
     0
440
 16777216
100
AcDbMText
 10
880.6768286650209
 20
581.037115524057
 30
0.0
 40
6.0
 41
0.0
 46
0.0
 71
     5
 72
     1
  1
\A1;113
 73
     1
 44
1.0
  0
POINT
  5
1015BCF
330
101537F
100
AcDbEntity
  8
Defpoints
 62
     0
440
 16777216
100
AcDbPoint
 10
824.1773430787061
 20
564.1240802790453
 30
0.0
  0
POINT
  5
1015BD0
330
101537F
100
AcDbEntity
  8
Defpoints
 62
     0
440
 16777216
100
AcDbPoint
 10
937.1763142513355
 20
564.1182667394827
 30
0.0
  0
POINT
  5
1015BD1
330
101537F
100
AcDbEntity
  8
Defpoints
 62
     0
440
 16777216
100
AcDbPoint
 10
937.1763142513355
 20
581.037115524057
 30
0.0
  0
ENDBLK
  5
1015381
330
101537F
100
AcDbEntity
  8
0
100
AcDbBlockEnd
  0
BLOCK
  5
101538D
330
101538C
100
AcDbEntity
  8
0
100
AcDbBlockBegin
  2
*D15
 70
     1
 10
0.0
 20
0.0
 30
0.0
  3
*D15
  1

  0
LINE
  5
1015BBE
330
101538C
100
AcDbEntity
  8
quote
 62
     0
440
 16777216
370
    -2
100
AcDbLine
 10
937.1763142513355
 20
564.1807667394828
 30
0.0
 11
937.1763142513355
 21
581.2171155240569
 31
0.0
  0
LINE
  5
1015BBF
330
101538C
100
AcDbEntity
  8
quote
 62
     0
440
 16777216
370
    -2
100
AcDbLine
 10
1050.176314251335
 20
564.1749531469895
 30
0.0
 11
1050.176314251335
 21
581.2171155240569
 31
0.0
  0
LINE
  5
1015BC0
330
101538C
100
AcDbEntity
  8
quote
 62
     0
440
 16777216
370
    -2
100
AcDbLine
 10
941.1763142513354
 20
581.037115524057
 30
0.0
 11
987.5763142513354
 21
581.037115524057
 31
0.0
  0
LINE
  5
1015BC1
330
101538C
100
AcDbEntity
  8
quote
 62
     0
440
 16777216
370
    -2
100
AcDbLine
 10
1046.176314251335
 20
581.037115524057
 30
0.0
 11
999.7763142513354
 21
581.037115524057
 31
0.0
  0
SOLID
  5
1015BC2
330
101538C
100
AcDbEntity
  8
quote
 62
     0
440
 16777216
100
AcDbTrace
 10
941.1763142513354
 20
581.7037821907237
 30
0.0
 11
941.1763142513354
 21
580.3704488573904
 31
0.0
 12
937.1763142513355
 22
581.037115524057
 32
0.0
 13
937.1763142513355
 23
581.037115524057
 33
0.0
  0
SOLID
  5
1015BC3
330
101538C
100
AcDbEntity
  8
quote
 62
     0
440
 16777216
100
AcDbTrace
 10
1046.176314251335
 20
581.7037821907237
 30
0.0
 11
1046.176314251335
 21
580.3704488573904
 31
0.0
 12
1050.176314251335
 22
581.037115524057
 32
0.0
 13
1050.176314251335
 23
581.037115524057
 33
0.0
  0
MTEXT
  5
1015BC4
330
101538C
100
AcDbEntity
  8
quote
 62
     0
440
 16777216
100
AcDbMText
 10
993.6763142513354
 20
581.037115524057
 30
0.0
 40
6.0
 41
0.0
 46
0.0
 71
     5
 72
     1
  1
\A1;113
 73
     1
 44
1.0
  0
POINT
  5
1015BC5
330
101538C
100
AcDbEntity
  8
Defpoints
 62
     0
440
 16777216
100
AcDbPoint
 10
937.1763142513355
 20
564.1182667394827
 30
0.0
  0
POINT
  5
1015BC6
330
101538C
100
AcDbEntity
  8
Defpoints
 62
     0
440
 16777216
100
AcDbPoint
 10
1050.176314251335
 20
564.1124531469895
 30
0.0
  0
POINT
  5
1015BC7
330
101538C
100
AcDbEntity
  8
Defpoints
 62
     0
440
 16777216
100
AcDbPoint
 10
1050.176314251335
 20
581.037115524057
 30
0.0
  0
ENDBLK
  5
101538E
330
101538C
100
AcDbEntity
  8
0
100
AcDbBlockEnd
  0
BLOCK
  5
101539A
330
1015399
100
AcDbEntity
  8
0
100
AcDbBlockBegin
  2
*D16
 70
     1
 10
0.0
 20
0.0
 30
0.0
  3
*D16
  1

  0
LINE
  5
1015BB4
330
1015399
100
AcDbEntity
  8
quote
 62
     0
440
 16777216
370
    -2
100
AcDbLine
 10
1050.176314251335
 20
564.1749531469895
 30
0.0
 11
1050.176314251335
 21
581.2171155240569
 31
0.0
  0
LINE
  5
1015BB5
330
1015399
100
AcDbEntity
  8
quote
 62
     0
440
 16777216
370
    -2
100
AcDbLine
 10
1163.176314251335
 20
564.169139554496
 30
0.0
 11
1163.176314251335
 21
581.2171155240569
 31
0.0
  0
LINE
  5
1015BB6
330
1015399
100
AcDbEntity
  8
quote
 62
     0
440
 16777216
370
    -2
100
AcDbLine
 10
1054.176314251335
 20
581.037115524057
 30
0.0
 11
1100.576314251335
 21
581.037115524057
 31
0.0
  0
LINE
  5
1015BB7
330
1015399
100
AcDbEntity
  8
quote
 62
     0
440
 16777216
370
    -2
100
AcDbLine
 10
1159.176314251335
 20
581.037115524057
 30
0.0
 11
1112.776314251335
 21
581.037115524057
 31
0.0
  0
SOLID
  5
1015BB8
330
1015399
100
AcDbEntity
  8
quote
 62
     0
440
 16777216
100
AcDbTrace
 10
1054.176314251335
 20
581.7037821907237
 30
0.0
 11
1054.176314251335
 21
580.3704488573904
 31
0.0
 12
1050.176314251335
 22
581.037115524057
 32
0.0
 13
1050.176314251335
 23
581.037115524057
 33
0.0
  0
SOLID
  5
1015BB9
330
1015399
100
AcDbEntity
  8
quote
 62
     0
440
 16777216
100
AcDbTrace
 10
1159.176314251335
 20
581.7037821907237
 30
0.0
 11
1159.176314251335
 21
580.3704488573904
 31
0.0
 12
1163.176314251335
 22
581.037115524057
 32
0.0
 13
1163.176314251335
 23
581.037115524057
 33
0.0
  0
MTEXT
  5
1015BBA
330
1015399
100
AcDbEntity
  8
quote
 62
     0
440
 16777216
100
AcDbMText
 10
1106.676314251335
 20
581.037115524057
 30
0.0
 40
6.0
 41
0.0
 46
0.0
 71
     5
 72
     1
  1
\A1;113
 73
     1
 44
1.0
  0
POINT
  5
1015BBB
330
1015399
100
AcDbEntity
  8
Defpoints
 62
     0
440
 16777216
100
AcDbPoint
 10
1050.176314251335
 20
564.1124531469895
 30
0.0
  0
POINT
  5
1015BBC
330
1015399
100
AcDbEntity
  8
Defpoints
 62
     0
440
 16777216
100
AcDbPoint
 10
1163.176314251335
 20
564.106639554496
 30
0.0
  0
POINT
  5
1015BBD
330
1015399
100
AcDbEntity
  8
Defpoints
 62
     0
440
 16777216
100
AcDbPoint
 10
1163.176314251335
 20
581.037115524057
 30
0.0
  0
ENDBLK
  5
101539B
330
1015399
100
AcDbEntity
  8
0
100
AcDbBlockEnd
  0
BLOCK
  5
10153A7
330
10153A6
100
AcDbEntity
  8
0
100
AcDbBlockBegin
  2
*D17
 70
     1
 10
0.0
 20
0.0
 30
0.0
  3
*D17
  1

  0
LINE
  5
1015BAA
330
10153A6
100
AcDbEntity
  8
quote
 62
     0
440
 16777216
370
    -2
100
AcDbLine
 10
824.1773430787061
 20
564.1865802790452
 30
0.0
 11
824.1773430787061
 21
581.2171155240569
 31
0.0
  0
LINE
  5
1015BAB
330
10153A6
100
AcDbEntity
  8
quote
 62
     0
440
 16777216
370
    -2
100
AcDbLine
 10
800.1763142513354
 20
564.1878150772845
 30
0.0
 11
800.1763142513354
 21
581.2171155240569
 31
0.0
  0
LINE
  5
1015BAC
330
10153A6
100
AcDbEntity
  8
quote
 62
     0
440
 16777216
370
    -2
100
AcDbLine
 10
820.1773430787062
 20
581.037115524057
 30
0.0
 11
817.2768286650208
 21
581.037115524057
 31
0.0
  0
LINE
  5
1015BAD
330
10153A6
100
AcDbEntity
  8
quote
 62
     0
440
 16777216
370
    -2
100
AcDbLine
 10
804.1763142513355
 20
581.037115524057
 30
0.0
 11
807.0768286650208
 21
581.037115524057
 31
0.0
  0
SOLID
  5
1015BAE
330
10153A6
100
AcDbEntity
  8
quote
 62
     0
440
 16777216
100
AcDbTrace
 10
820.1773430787062
 20
581.7037821907237
 30
0.0
 11
820.1773430787062
 21
580.3704488573904
 31
0.0
 12
824.1773430787061
 22
581.037115524057
 32
0.0
 13
824.1773430787061
 23
581.037115524057
 33
0.0
  0
SOLID
  5
1015BAF
330
10153A6
100
AcDbEntity
  8
quote
 62
     0
440
 16777216
100
AcDbTrace
 10
804.1763142513355
 20
581.7037821907237
 30
0.0
 11
804.1763142513355
 21
580.3704488573904
 31
0.0
 12
800.1763142513354
 22
581.037115524057
 32
0.0
 13
800.1763142513354
 23
581.037115524057
 33
0.0
  0
MTEXT
  5
1015BB0
330
10153A6
100
AcDbEntity
  8
quote
 62
     0
440
 16777216
100
AcDbMText
 10
812.1768286650208
 20
581.037115524057
 30
0.0
 40
6.0
 41
0.0
 46
0.0
 71
     5
 72
     1
  1
\A1;24
 73
     1
 44
1.0
  0
POINT
  5
1015BB1
330
10153A6
100
AcDbEntity
  8
Defpoints
 62
     0
440
 16777216
100
AcDbPoint
 10
824.1773430787061
 20
564.1240802790453
 30
0.0
  0
POINT
  5
1015BB2
330
10153A6
100
AcDbEntity
  8
Defpoints
 62
     0
440
 16777216
100
AcDbPoint
 10
800.1763142513354
 20
564.1253150772845
 30
0.0
  0
POINT
  5
1015BB3
330
10153A6
100
AcDbEntity
  8
Defpoints
 62
     0
440
 16777216
100
AcDbPoint
 10
800.1763142513354
 20
581.037115524057
 30
0.0
  0
ENDBLK
  5
10153A8
330
10153A6
100
AcDbEntity
  8
0
100
AcDbBlockEnd
  0
BLOCK
  5
10153B4
330
10153B3
100
AcDbEntity
  8
0
100
AcDbBlockBegin
  2
*D18
 70
     1
 10
0.0
 20
0.0
 30
0.0
  3
*D18
  1

  0
LINE
  5
1015B9F
330
10153B3
100
AcDbEntity
  8
quote
 62
     0
440
 16777216
370
    -2
100
AcDbLine
 10
1163.176314251335
 20
564.169139554496
 30
0.0
 11
1163.176314251335
 21
581.2171155240569
 31
0.0
  0
LINE
  5
1015BA0
330
10153B3
100
AcDbEntity
  8
quote
 62
     0
440
 16777216
370
    -2
100
AcDbLine
 10
1173.176314251335
 20
564.1686250772843
 30
0.0
 11
1173.176314251335
 21
581.2171155240569
 31
0.0
  0
LINE
  5
1015BA1
330
10153B3
100
AcDbEntity
  8
quote
 62
     0
440
 16777216
370
    -2
100
AcDbLine
 10
1167.176314251335
 20
581.037115524057
 30
0.0
 11
1169.176314251335
 21
581.037115524057
 31
0.0
  0
LINE
  5
1015BA2
330
10153B3
100
AcDbEntity
  8
quote
 62
     0
440
 16777216
370
    -2
100
AcDbLine
 10
1168.176314251335
 20
581.037115524057
 30
0.0
 11
1175.493706095802
 21
586.337115524057
 31
0.0
  0
LINE
  5
1015BA3
330
10153B3
100
AcDbEntity
  8
quote
 62
     0
440
 16777216
370
    -2
100
AcDbLine
 10
1175.493706095802
 20
586.337115524057
 30
0.0
 11
1175.693706095802
 21
586.337115524057
 31
0.0
  0
MTEXT
  5
1015BA4
330
10153B3
100
AcDbEntity
  8
quote
 62
     0
440
 16777216
100
AcDbMText
 10
1179.293706095802
 20
586.337115524057
 30
0.0
 40
6.0
 41
0.0
 46
0.0
 71
     5
 72
     1
  1
\A1;10
 73
     1
 44
1.0
  0
SOLID
  5
1015BA5
330
10153B3
100
AcDbEntity
  8
quote
 62
     0
440
 16777216
100
AcDbTrace
 10
1167.176314251335
 20
581.7037821907237
 30
0.0
 11
1167.176314251335
 21
580.3704488573904
 31
0.0
 12
1163.176314251335
 22
581.037115524057
 32
0.0
 13
1163.176314251335
 23
581.037115524057
 33
0.0
  0
SOLID
  5
1015BA6
330
10153B3
100
AcDbEntity
  8
quote
 62
     0
440
 16777216
100
AcDbTrace
 10
1169.176314251335
 20
581.7037821907237
 30
0.0
 11
1169.176314251335
 21
580.3704488573904
 31
0.0
 12
1173.176314251335
 22
581.037115524057
 32
0.0
 13
1173.176314251335
 23
581.037115524057
 33
0.0
  0
POINT
  5
1015BA7
330
10153B3
100
AcDbEntity
  8
Defpoints
 62
     0
440
 16777216
100
AcDbPoint
 10
1163.176314251335
 20
564.106639554496
 30
0.0
  0
POINT
  5
1015BA8
330
10153B3
100
AcDbEntity
  8
Defpoints
 62
     0
440
 16777216
100
AcDbPoint
 10
1173.176314251335
 20
564.1061250772843
 30
0.0
  0
POINT
  5
1015BA9
330
10153B3
100
AcDbEntity
  8
Defpoints
 62
     0
440
 16777216
100
AcDbPoint
 10
1173.176314251335
 20
581.037115524057
 30
0.0
  0
ENDBLK
  5
10153B5
330
10153B3
100
AcDbEntity
  8
0
100
AcDbBlockEnd
  0
BLOCK
  5
10153CE
330
10153CD
100
AcDbEntity
  8
0
100
AcDbBlockBegin
  2
*D19
 70
     1
 10
0.0
 20
0.0
 30
0.0
  3
*D19
  1

  0
LINE
  5
1015B95
330
10153CD
100
AcDbEntity
  8
quote
 62
     0
440
 16777216
370
    -2
100
AcDbLine
 10
800.1763174668178
 20
564.1878150772019
 30
0.0
 11
800.1782683592345
 21
602.1077145776639
 31
0.0
  0
LINE
  5
1015B96
330
10153CD
100
AcDbEntity
  8
quote
 62
     0
440
 16777216
370
    -2
100
AcDbLine
 10
1173.176317466817
 20
564.1686250772015
 30
0.0
 11
1173.178268359234
 21
602.0885245776636
 31
0.0
  0
LINE
  5
1015B97
330
10153CD
100
AcDbEntity
  8
quote
 62
     0
440
 16777216
370
    -2
100
AcDbLine
 10
804.1782590933509
 20
601.9275087870178
 30
0.0
 11
978.5782591093642
 21
601.9185363044431
 31
0.0
  0
LINE
  5
1015B98
330
10153CD
100
AcDbEntity
  8
quote
 62
     0
440
 16777216
370
    -2
100
AcDbLine
 10
1169.178259103938
 20
601.9087303687864
 30
0.0
 11
994.7782590879246
 21
601.9177028513611
 31
0.0
  0
SOLID
  5
1015B99
330
10153CD
100
AcDbEntity
  8
quote
 62
     0
440
 16777216
100
AcDbTrace
 10
804.1782933918318
 20
602.594175452802
 30
0.0
 11
804.1782247948702
 21
601.2608421212335
 31
0.0
 12
800.1782590986447
 22
601.9277145779023
 32
0.0
 13
800.1782590986447
 23
601.9277145779023
 33
0.0
  0
SOLID
  5
1015B9A
330
10153CD
100
AcDbEntity
  8
quote
 62
     0
440
 16777216
100
AcDbTrace
 10
1169.178293402419
 20
602.5753970345707
 30
0.0
 11
1169.178224805457
 21
601.2420637030021
 31
0.0
 12
1173.178259098644
 22
601.9085245779019
 32
0.0
 13
1173.178259098644
 23
601.9085245779019
 33
0.0
  0
MTEXT
  5
1015B9B
330
10153CD
100
AcDbEntity
  8
quote
 62
     0
440
 16777216
100
AcDbMText
 10
986.6782590986446
 20
601.9181195779021
 30
0.0
 40
6.0
 41
0.0
 46
0.0
 71
     5
 72
     1
  1
\A1;373
 11
0.999999998676566
 21
-0.0000514477211122
 31
0.0
 73
     1
 44
1.0
  0
POINT
  5
1015B9C
330
10153CD
100
AcDbEntity
  8
Defpoints
 62
     0
440
 16777216
100
AcDbPoint
 10
800.1763142513354
 20
564.1253150772845
 30
0.0
  0
POINT
  5
1015B9D
330
10153CD
100
AcDbEntity
  8
Defpoints
 62
     0
440
 16777216
100
AcDbPoint
 10
1173.176314251335
 20
564.1061250772842
 30
0.0
  0
POINT
  5
1015B9E
330
10153CD
100
AcDbEntity
  8
Defpoints
 62
     0
440
 16777216
100
AcDbPoint
 10
1173.178259098644
 20
601.9085245779019
 30
0.0
  0
ENDBLK
  5
10153CF
330
10153CD
100
AcDbEntity
  8
0
100
AcDbBlockEnd
  0
BLOCK
  5
10153DB
330
10153DA
100
AcDbEntity
  8
0
100
AcDbBlockBegin
  2
*D20
 70
     1
 10
0.0
 20
0.0
 30
0.0
  3
*D20
  1

  0
LINE
  5
1015B8B
330
10153DA
100
AcDbEntity
  8
quote
 62
     0
440
 16777216
370
    -2
100
AcDbLine
 10
1173.238814251335
 20
554.1253150772845
 30
0.0
 11
1187.235795365956
 21
554.1253150772845
 31
0.0
  0
LINE
  5
1015B8C
330
10153DA
100
AcDbEntity
  8
quote
 62
     0
440
 16777216
370
    -2
100
AcDbLine
 10
1173.238814251335
 20
483.1253150772845
 30
0.0
 11
1187.235795365956
 21
483.1253150772845
 31
0.0
  0
LINE
  5
1015B8D
330
10153DA
100
AcDbEntity
  8
quote
 62
     0
440
 16777216
370
    -2
100
AcDbLine
 10
1187.055795365956
 20
550.1253150772845
 30
0.0
 11
1187.055795365956
 21
522.7253150772845
 31
0.0
  0
LINE
  5
1015B8E
330
10153DA
100
AcDbEntity
  8
quote
 62
     0
440
 16777216
370
    -2
100
AcDbLine
 10
1187.055795365956
 20
487.1253150772845
 30
0.0
 11
1187.055795365956
 21
514.5253150772845
 31
0.0
  0
SOLID
  5
1015B8F
330
10153DA
100
AcDbEntity
  8
quote
 62
     0
440
 16777216
100
AcDbTrace
 10
1186.389128699289
 20
550.1253150772845
 30
0.0
 11
1187.722462032623
 21
550.1253150772845
 31
0.0
 12
1187.055795365956
 22
554.1253150772845
 32
0.0
 13
1187.055795365956
 23
554.1253150772845
 33
0.0
  0
SOLID
  5
1015B90
330
10153DA
100
AcDbEntity
  8
quote
 62
     0
440
 16777216
100
AcDbTrace
 10
1186.38912869929
 20
487.1253150772845
 30
0.0
 11
1187.722462032623
 21
487.1253150772845
 31
0.0
 12
1187.055795365956
 22
483.1253150772845
 32
0.0
 13
1187.055795365956
 23
483.1253150772845
 33
0.0
  0
MTEXT
  5
1015B91
330
10153DA
100
AcDbEntity
  8
quote
 62
     0
440
 16777216
100
AcDbMText
 10
1187.055795365956
 20
518.6253150772841
 30
0.0
 40
6.0
 41
0.0
 46
0.0
 71
     5
 72
     1
  1
\A1;71
 11
0.0000000000000001
 21
1.0
 31
0.0
 73
     1
 44
1.0
  0
POINT
  5
1015B92
330
10153DA
100
AcDbEntity
  8
Defpoints
 62
     0
440
 16777216
100
AcDbPoint
 10
1173.176314251335
 20
554.1253150772845
 30
0.0
  0
POINT
  5
1015B93
330
10153DA
100
AcDbEntity
  8
Defpoints
 62
     0
440
 16777216
100
AcDbPoint
 10
1173.176314251335
 20
483.1253150772845
 30
0.0
  0
POINT
  5
1015B94
330
10153DA
100
AcDbEntity
  8
Defpoints
 62
     0
440
 16777216
100
AcDbPoint
 10
1187.055795365956
 20
483.1253150772845
 30
0.0
  0
ENDBLK
  5
10153DC
330
10153DA
100
AcDbEntity
  8
0
100
AcDbBlockEnd
  0
BLOCK
  5
10153E8
330
10153E7
100
AcDbEntity
  8
0
100
AcDbBlockBegin
  2
*D21
 70
     1
 10
0.0
 20
0.0
 30
0.0
  3
*D21
  1

  0
LINE
  5
1015B81
330
10153E7
100
AcDbEntity
  8
quote
 62
     0
440
 16777216
370
    -2
100
AcDbLine
 10
1173.238814251335
 20
483.1253150772845
 30
0.0
 11
1187.235795365958
 21
483.1253150772845
 31
0.0
  0
LINE
  5
1015B82
330
10153E7
100
AcDbEntity
  8
quote
 62
     0
440
 16777216
370
    -2
100
AcDbLine
 10
1173.238814251335
 20
413.1253150772843
 30
0.0
 11
1187.235795365958
 21
413.1253150772843
 31
0.0
  0
LINE
  5
1015B83
330
10153E7
100
AcDbEntity
  8
quote
 62
     0
440
 16777216
370
    -2
100
AcDbLine
 10
1187.055795365958
 20
479.1253150772845
 30
0.0
 11
1187.055795365958
 21
452.7253150772844
 31
0.0
  0
LINE
  5
1015B84
330
10153E7
100
AcDbEntity
  8
quote
 62
     0
440
 16777216
370
    -2
100
AcDbLine
 10
1187.055795365958
 20
417.1253150772843
 30
0.0
 11
1187.055795365958
 21
443.5253150772844
 31
0.0
  0
SOLID
  5
1015B85
330
10153E7
100
AcDbEntity
  8
quote
 62
     0
440
 16777216
100
AcDbTrace
 10
1186.389128699292
 20
479.1253150772845
 30
0.0
 11
1187.722462032625
 21
479.1253150772845
 31
0.0
 12
1187.055795365958
 22
483.1253150772845
 32
0.0
 13
1187.055795365958
 23
483.1253150772845
 33
0.0
  0
SOLID
  5
1015B86
330
10153E7
100
AcDbEntity
  8
quote
 62
     0
440
 16777216
100
AcDbTrace
 10
1186.389128699292
 20
417.1253150772843
 30
0.0
 11
1187.722462032625
 21
417.1253150772843
 31
0.0
 12
1187.055795365958
 22
413.1253150772843
 32
0.0
 13
1187.055795365958
 23
413.1253150772843
 33
0.0
  0
MTEXT
  5
1015B87
330
10153E7
100
AcDbEntity
  8
quote
 62
     0
440
 16777216
100
AcDbMText
 10
1187.055795365958
 20
448.125315077284
 30
0.0
 40
6.0
 41
0.0
 46
0.0
 71
     5
 72
     1
  1
\A1;70
 11
0.0000000000000001
 21
1.0
 31
0.0
 73
     1
 44
1.0
  0
POINT
  5
1015B88
330
10153E7
100
AcDbEntity
  8
Defpoints
 62
     0
440
 16777216
100
AcDbPoint
 10
1173.176314251335
 20
483.1253150772845
 30
0.0
  0
POINT
  5
1015B89
330
10153E7
100
AcDbEntity
  8
Defpoints
 62
     0
440
 16777216
100
AcDbPoint
 10
1173.176314251335
 20
413.1253150772843
 30
0.0
  0
POINT
  5
1015B8A
330
10153E7
100
AcDbEntity
  8
Defpoints
 62
     0
440
 16777216
100
AcDbPoint
 10
1187.055795365958
 20
413.1253150772843
 30
0.0
  0
ENDBLK
  5
10153E9
330
10153E7
100
AcDbEntity
  8
0
100
AcDbBlockEnd
  0
BLOCK
  5
10153F5
330
10153F4
100
AcDbEntity
  8
0
100
AcDbBlockBegin
  2
*D22
 70
     1
 10
0.0
 20
0.0
 30
0.0
  3
*D22
  1

  0
LINE
  5
1015B77
330
10153F4
100
AcDbEntity
  8
quote
 62
     0
440
 16777216
370
    -2
100
AcDbLine
 10
1173.238814251335
 20
413.1253150772843
 30
0.0
 11
1187.235795365959
 21
413.1253150772843
 31
0.0
  0
LINE
  5
1015B78
330
10153F4
100
AcDbEntity
  8
quote
 62
     0
440
 16777216
370
    -2
100
AcDbLine
 10
1173.238814251335
 20
342.1253150772842
 30
0.0
 11
1187.235795365959
 21
342.1253150772842
 31
0.0
  0
LINE
  5
1015B79
330
10153F4
100
AcDbEntity
  8
quote
 62
     0
440
 16777216
370
    -2
100
AcDbLine
 10
1187.055795365959
 20
409.1253150772843
 30
0.0
 11
1187.055795365959
 21
381.7253150772842
 31
0.0
  0
LINE
  5
1015B7A
330
10153F4
100
AcDbEntity
  8
quote
 62
     0
440
 16777216
370
    -2
100
AcDbLine
 10
1187.055795365959
 20
346.1253150772842
 30
0.0
 11
1187.055795365959
 21
373.5253150772842
 31
0.0
  0
SOLID
  5
1015B7B
330
10153F4
100
AcDbEntity
  8
quote
 62
     0
440
 16777216
100
AcDbTrace
 10
1186.389128699292
 20
409.1253150772843
 30
0.0
 11
1187.722462032626
 21
409.1253150772843
 31
0.0
 12
1187.055795365959
 22
413.1253150772843
 32
0.0
 13
1187.055795365959
 23
413.1253150772843
 33
0.0
  0
SOLID
  5
1015B7C
330
10153F4
100
AcDbEntity
  8
quote
 62
     0
440
 16777216
100
AcDbTrace
 10
1186.389128699292
 20
346.1253150772842
 30
0.0
 11
1187.722462032626
 21
346.1253150772842
 31
0.0
 12
1187.055795365959
 22
342.1253150772842
 32
0.0
 13
1187.055795365959
 23
342.1253150772842
 33
0.0
  0
MTEXT
  5
1015B7D
330
10153F4
100
AcDbEntity
  8
quote
 62
     0
440
 16777216
100
AcDbMText
 10
1187.055795365959
 20
377.6253150772838
 30
0.0
 40
6.0
 41
0.0
 46
0.0
 71
     5
 72
     1
  1
\A1;71
 11
0.0000000000000001
 21
1.0
 31
0.0
 73
     1
 44
1.0
  0
POINT
  5
1015B7E
330
10153F4
100
AcDbEntity
  8
Defpoints
 62
     0
440
 16777216
100
AcDbPoint
 10
1173.176314251335
 20
413.1253150772843
 30
0.0
  0
POINT
  5
1015B7F
330
10153F4
100
AcDbEntity
  8
Defpoints
 62
     0
440
 16777216
100
AcDbPoint
 10
1173.176314251335
 20
342.1253150772842
 30
0.0
  0
POINT
  5
1015B80
330
10153F4
100
AcDbEntity
  8
Defpoints
 62
     0
440
 16777216
100
AcDbPoint
 10
1187.055795365959
 20
342.1253150772842
 30
0.0
  0
ENDBLK
  5
10153F6
330
10153F4
100
AcDbEntity
  8
0
100
AcDbBlockEnd
  0
BLOCK
  5
1015410
330
101540F
100
AcDbEntity
  8
0
100
AcDbBlockBegin
  2
*D23
 70
     1
 10
0.0
 20
0.0
 30
0.0
  3
*D23
  1

  0
LINE
  5
1015B6D
330
101540F
100
AcDbEntity
  8
quote
 62
     0
440
 16777216
370
    -2
100
AcDbLine
 10
1008.057020315403
 20
332.0628150772845
 30
0.0
 11
1008.057020315403
 21
312.5294347633322
 31
0.0
  0
LINE
  5
1015B6E
330
101540F
100
AcDbEntity
  8
quote
 62
     0
440
 16777216
370
    -2
100
AcDbLine
 10
1085.607020315403
 20
332.0628150772845
 30
0.0
 11
1085.607020315403
 21
312.5294347633322
 31
0.0
  0
LINE
  5
1015B6F
330
101540F
100
AcDbEntity
  8
quote
 62
     0
440
 16777216
370
    -2
100
AcDbLine
 10
1012.057020315403
 20
312.7094347633322
 30
0.0
 11
1037.732020315403
 21
312.7094347633322
 31
0.0
  0
LINE
  5
1015B70
330
101540F
100
AcDbEntity
  8
quote
 62
     0
440
 16777216
370
    -2
100
AcDbLine
 10
1081.607020315402
 20
312.7094347633322
 30
0.0
 11
1055.932020315403
 21
312.7094347633322
 31
0.0
  0
SOLID
  5
1015B71
330
101540F
100
AcDbEntity
  8
quote
 62
     0
440
 16777216
100
AcDbTrace
 10
1012.057020315403
 20
313.3761014299988
 30
0.0
 11
1012.057020315403
 21
312.0427680966655
 31
0.0
 12
1008.057020315403
 22
312.7094347633322
 32
0.0
 13
1008.057020315403
 23
312.7094347633322
 33
0.0
  0
SOLID
  5
1015B72
330
101540F
100
AcDbEntity
  8
quote
 62
     0
440
 16777216
100
AcDbTrace
 10
1081.607020315402
 20
313.3761014299988
 30
0.0
 11
1081.607020315402
 21
312.0427680966655
 31
0.0
 12
1085.607020315403
 22
312.7094347633322
 32
0.0
 13
1085.607020315403
 23
312.7094347633322
 33
0.0
  0
MTEXT
  5
1015B73
330
101540F
100
AcDbEntity
  8
quote
 62
     0
440
 16777216
100
AcDbMText
 10
1046.832020315403
 20
312.7094347633322
 30
0.0
 40
6.0
 41
0.0
 46
0.0
 71
     5
 72
     1
  1
\A1;77.6
 73
     1
 44
1.0
  0
POINT
  5
1015B74
330
101540F
100
AcDbEntity
  8
Defpoints
 62
     0
440
 16777216
100
AcDbPoint
 10
1008.057020315403
 20
332.1253150772845
 30
0.0
  0
POINT
  5
1015B75
330
101540F
100
AcDbEntity
  8
Defpoints
 62
     0
440
 16777216
100
AcDbPoint
 10
1085.607020315403
 20
332.1253150772845
 30
0.0
  0
POINT
  5
1015B76
330
101540F
100
AcDbEntity
  8
Defpoints
 62
     0
440
 16777216
100
AcDbPoint
 10
1085.607020315403
 20
312.7094347633322
 30
0.0
  0
ENDBLK
  5
1015411
330
101540F
100
AcDbEntity
  8
0
100
AcDbBlockEnd
  0
BLOCK
  5
101541D
330
101541C
100
AcDbEntity
  8
0
100
AcDbBlockBegin
  2
*D24
 70
     1
 10
0.0
 20
0.0
 30
0.0
  3
*D24
  1

  0
LINE
  5
1015B63
330
101541C
100
AcDbEntity
  8
quote
 62
     0
440
 16777216
370
    -2
100
AcDbLine
 10
1085.607020315403
 20
332.0628150772845
 30
0.0
 11
1085.607020315403
 21
312.5294347633322
 31
0.0
  0
LINE
  5
1015B64
330
101541C
100
AcDbEntity
  8
quote
 62
     0
440
 16777216
370
    -2
100
AcDbLine
 10
1163.176314251335
 20
332.0628150772845
 30
0.0
 11
1163.176314251335
 21
312.5294347633322
 31
0.0
  0
LINE
  5
1015B65
330
101541C
100
AcDbEntity
  8
quote
 62
     0
440
 16777216
370
    -2
100
AcDbLine
 10
1089.607020315402
 20
312.7094347633322
 30
0.0
 11
1115.291667283369
 21
312.7094347633322
 31
0.0
  0
LINE
  5
1015B66
330
101541C
100
AcDbEntity
  8
quote
 62
     0
440
 16777216
370
    -2
100
AcDbLine
 10
1159.176314251335
 20
312.7094347633322
 30
0.0
 11
1133.491667283369
 21
312.7094347633322
 31
0.0
  0
SOLID
  5
1015B67
330
101541C
100
AcDbEntity
  8
quote
 62
     0
440
 16777216
100
AcDbTrace
 10
1089.607020315402
 20
313.3761014299988
 30
0.0
 11
1089.607020315402
 21
312.0427680966655
 31
0.0
 12
1085.607020315403
 22
312.7094347633322
 32
0.0
 13
1085.607020315403
 23
312.7094347633322
 33
0.0
  0
SOLID
  5
1015B68
330
101541C
100
AcDbEntity
  8
quote
 62
     0
440
 16777216
100
AcDbTrace
 10
1159.176314251335
 20
313.3761014299988
 30
0.0
 11
1159.176314251335
 21
312.0427680966655
 31
0.0
 12
1163.176314251335
 22
312.7094347633322
 32
0.0
 13
1163.176314251335
 23
312.7094347633322
 33
0.0
  0
MTEXT
  5
1015B69
330
101541C
100
AcDbEntity
  8
quote
 62
     0
440
 16777216
100
AcDbMText
 10
1124.391667283369
 20
312.7094347633322
 30
0.0
 40
6.0
 41
0.0
 46
0.0
 71
     5
 72
     1
  1
\A1;77.6
 73
     1
 44
1.0
  0
POINT
  5
1015B6A
330
101541C
100
AcDbEntity
  8
Defpoints
 62
     0
440
 16777216
100
AcDbPoint
 10
1085.607020315403
 20
332.1253150772845
 30
0.0
  0
POINT
  5
1015B6B
330
101541C
100
AcDbEntity
  8
Defpoints
 62
     0
440
 16777216
100
AcDbPoint
 10
1163.176314251335
 20
332.1253150772845
 30
0.0
  0
POINT
  5
1015B6C
330
101541C
100
AcDbEntity
  8
Defpoints
 62
     0
440
 16777216
100
AcDbPoint
 10
1163.176314251335
 20
312.7094347633322
 30
0.0
  0
ENDBLK
  5
101541E
330
101541C
100
AcDbEntity
  8
0
100
AcDbBlockEnd
  0
BLOCK
  5
1015438
330
1015437
100
AcDbEntity
  8
0
100
AcDbBlockBegin
  2
*D25
 70
     1
 10
0.0
 20
0.0
 30
0.0
  3
*D25
  1

  0
LINE
  5
1015B59
330
1015437
100
AcDbEntity
  8
quote
 62
     0
440
 16777216
370
    -2
100
AcDbLine
 10
810.0891321647946
 20
539.9819731924452
 30
0.0
 11
792.9573163399664
 21
522.8501573676172
 31
0.0
  0
LINE
  5
1015B5A
330
1015437
100
AcDbEntity
  8
quote
 62
     0
440
 16777216
370
    -2
100
AcDbLine
 10
909.0380230003788
 20
441.033082356861
 30
0.0
 11
891.9062071755506
 21
423.901266532033
 31
0.0
  0
LINE
  5
1015B5B
330
1015437
100
AcDbEntity
  8
quote
 62
     0
440
 16777216
370
    -2
100
AcDbLine
 10
795.9130226853262
 20
520.1490094634845
 30
0.0
 11
834.7101557072015
 21
481.3518764416092
 31
0.0
  0
LINE
  5
1015B5C
330
1015437
100
AcDbEntity
  8
quote
 62
     0
440
 16777216
370
    -2
100
AcDbLine
 10
889.2050592714181
 20
426.8569728773926
 30
0.0
 11
850.4079262495428
 21
465.6541058992678
 31
0.0
  0
SOLID
  5
1015B5D
330
1015437
100
AcDbEntity
  8
quote
 62
     0
440
 16777216
100
AcDbTrace
 10
796.3844272061171
 20
520.6204139842754
 30
0.0
 11
795.4416181645351
 21
519.6776049426935
 31
0.0
 12
793.08459556058
 22
522.9774365882307
 32
0.0
 13
793.08459556058
 23
522.9774365882307
 33
0.0
  0
SOLID
  5
1015B5E
330
1015437
100
AcDbEntity
  8
quote
 62
     0
440
 16777216
100
AcDbTrace
 10
889.6764637922089
 20
427.3283773981837
 30
0.0
 11
888.733654750627
 21
426.3855683566016
 31
0.0
 12
892.0334863961642
 22
424.0285457526464
 32
0.0
 13
892.0334863961642
 23
424.0285457526464
 33
0.0
  0
MTEXT
  5
1015B5F
330
1015437
100
AcDbEntity
  8
quote
 62
     0
440
 16777216
100
AcDbMText
 10
842.5590409783721
 20
473.5029911704386
 30
0.0
 40
6.0
 41
0.0
 46
0.0
 71
     5
 72
     1
  1
\A1;139.9
 11
0.7071067811865476
 21
-0.7071067811865476
 31
0.0
 73
     1
 44
1.0
  0
POINT
  5
1015B60
330
1015437
100
AcDbEntity
  8
Defpoints
 62
     0
440
 16777216
100
AcDbPoint
 10
810.1333263386187
 20
540.0261673662694
 30
0.0
  0
POINT
  5
1015B61
330
1015437
100
AcDbEntity
  8
Defpoints
 62
     0
440
 16777216
100
AcDbPoint
 10
909.0822171742029
 20
441.0772765306852
 30
0.0
  0
POINT
  5
1015B62
330
1015437
100
AcDbEntity
  8
Defpoints
 62
     0
440
 16777216
100
AcDbPoint
 10
892.0334863961642
 20
424.0285457526464
 30
0.0
  0
ENDBLK
  5
1015439
330
1015437
100
AcDbEntity
  8
0
100
AcDbBlockEnd
  0
BLOCK
  5
1015445
330
1015444
100
AcDbEntity
  8
0
100
AcDbBlockBegin
  2
*D26
 70
     1
 10
0.0
 20
0.0
 30
0.0
  3
*D26
  1

  0
LINE
  5
1015B4F
330
1015444
100
AcDbEntity
  8
quote
 62
     0
440
 16777216
370
    -2
100
AcDbLine
 10
909.0380243066153
 20
441.0330810506629
 30
0.0
 11
891.9067148502216
 21
423.9007588872587
 31
0.0
  0
LINE
  5
1015B50
330
1015444
100
AcDbEntity
  8
quote
 62
     0
440
 16777216
370
    -2
100
AcDbLine
 10
1008.012827447815
 20
342.0641283993177
 30
0.0
 11
990.8815179914217
 21
324.9318062359135
 31
0.0
  0
LINE
  5
1015B51
330
1015444
100
AcDbEntity
  8
quote
 62
     0
440
 16777216
370
    -2
100
AcDbLine
 10
894.862501030294
 20
421.1996983441214
 30
0.0
 11
936.8543491891301
 21
379.2103323612921
 31
0.0
  0
LINE
  5
1015B52
330
1015444
100
AcDbEntity
  8
quote
 62
     0
440
 16777216
370
    -2
100
AcDbLine
 10
988.1802827286534
 20
327.8874327439786
 30
0.0
 11
946.1884345698171
 21
369.876798726808
 31
0.0
  0
SOLID
  5
1015B53
330
1015444
100
AcDbEntity
  8
quote
 62
     0
440
 16777216
100
AcDbTrace
 10
895.3338916178942
 20
421.6711167976914
 30
0.0
 11
894.3911104426938
 21
420.7282798905513
 31
0.0
 12
892.0339903088738
 22
424.0280418697226
 32
0.0
 13
892.0339903088738
 23
424.0280418697226
 33
0.0
  0
SOLID
  5
1015B54
330
1015444
100
AcDbEntity
  8
quote
 62
     0
440
 16777216
100
AcDbTrace
 10
988.6516733162537
 20
328.3588511975486
 30
0.0
 11
987.7088921410532
 21
327.4160142904086
 31
0.0
 12
991.0087934500737
 22
325.0590892183774
 32
0.0
 13
991.0087934500737
 23
325.0590892183774
 33
0.0
  0
MTEXT
  5
1015B55
330
1015444
100
AcDbEntity
  8
quote
 62
     0
440
 16777216
100
AcDbMText
 10
941.5213918794737
 20
374.54356554405
 30
0.0
 40
6.0
 41
0.0
 46
0.0
 71
     5
 72
     1
  1
\A1;140
 11
0.7071276803550771
 21
-0.7070858814003063
 31
0.0
 73
     1
 44
1.0
  0
POINT
  5
1015B56
330
1015444
100
AcDbEntity
  8
Defpoints
 62
     0
440
 16777216
100
AcDbPoint
 10
909.0822171742029
 20
441.0772765306851
 30
0.0
  0
POINT
  5
1015B57
330
1015444
100
AcDbEntity
  8
Defpoints
 62
     0
440
 16777216
100
AcDbPoint
 10
1008.057020315403
 20
342.10832387934
 30
0.0
  0
POINT
  5
1015B58
330
1015444
100
AcDbEntity
  8
Defpoints
 62
     0
440
 16777216
100
AcDbPoint
 10
991.0087934500737
 20
325.0590892183774
 30
0.0
  0
ENDBLK
  5
1015446
330
1015444
100
AcDbEntity
  8
0
100
AcDbBlockEnd
  0
BLOCK
  5
1015452
330
1015451
100
AcDbEntity
  8
0
100
AcDbBlockBegin
  2
*D27
 70
     1
 10
0.0
 20
0.0
 30
0.0
  3
*D27
  1

  0
LINE
  5
1015CF6
330
1015451
100
AcDbEntity
  8
quote
 62
     0
440
 16777216
370
    -2
100
AcDbLine
 10
803.0180643529288
 20
532.9992937282282
 30
0.0
 11
802.9349793061392
 21
533.0823787750177
 31
0.0
  0
LINE
  5
1015CF7
330
1015451
100
AcDbEntity
  8
quote
 62
     0
440
 16777216
370
    -2
100
AcDbLine
 10
810.0891321647944
 20
540.0703615400937
 30
0.0
 11
810.006047118005
 21
540.1534465868831
 31
0.0
  0
LINE
  5
1015CF8
330
1015451
100
AcDbEntity
  8
quote
 62
     0
440
 16777216
370
    -2
100
AcDbLine
 10
805.8906856514992
 20
535.7835266791503
 30
0.0
 11
807.3048992138723
 21
537.1977402415234
 31
0.0
  0
LINE
  5
1015CF9
330
1015451
100
AcDbEntity
  8
quote
 62
     0
440
 16777216
370
    -2
100
AcDbLine
 10
806.5977924326857
 20
536.4906334603368
 30
0.0
 11
818.7069387899759
 21
533.9716037197957
 31
0.0
  0
LINE
  5
1015CFA
330
1015451
100
AcDbEntity
  8
quote
 62
     0
440
 16777216
370
    -2
100
AcDbLine
 10
818.7069387899759
 20
533.9716037197957
 30
0.0
 11
818.8483601462131
 21
534.113025076033
 31
0.0
  0
MTEXT
  5
1015CFB
330
1015451
100
AcDbEntity
  8
quote
 62
     0
440
 16777216
100
AcDbMText
 10
821.3939445584848
 20
536.6586094883046
 30
0.0
 40
6.0
 41
0.0
 46
0.0
 71
     5
 72
     1
  1
\A1;10
 11
0.7071067811865702
 21
0.7071067811865249
 31
0.0
 73
     1
 44
1.0
  0
SOLID
  5
1015CFC
330
1015451
100
AcDbEntity
  8
quote
 62
     0
440
 16777216
100
AcDbTrace
 10
805.4192811307082
 20
536.2549311999414
 30
0.0
 11
806.3620901722902
 21
535.3121221583593
 31
0.0
 12
803.0622585267529
 22
532.9550995544042
 32
0.0
 13
803.0622585267529
 23
532.9550995544042
 33
0.0
  0
SOLID
  5
1015CFD
330
1015451
100
AcDbEntity
  8
quote
 62
     0
440
 16777216
100
AcDbTrace
 10
806.8334946930812
 20
537.6691447623145
 30
0.0
 11
807.7763037346633
 21
536.7263357207324
 31
0.0
 12
810.1333263386186
 22
540.0261673662695
 32
0.0
 13
810.1333263386186
 23
540.0261673662695
 33
0.0
  0
POINT
  5
1015CFE
330
1015451
100
AcDbEntity
  8
Defpoints
 62
     0
440
 16777216
100
AcDbPoint
 10
803.0622585267529
 20
532.9550995544041
 30
0.0
  0
POINT
  5
1015CFF
330
1015451
100
AcDbEntity
  8
Defpoints
 62
     0
440
 16777216
100
AcDbPoint
 10
810.1333263386186
 20
540.0261673662695
 30
0.0
  0
POINT
  5
1015D00
330
1015451
100
AcDbEntity
  8
Defpoints
 62
     0
440
 16777216
100
AcDbPoint
 10
810.1333263386186
 20
540.0261673662695
 30
0.0
  0
ENDBLK
  5
1015453
330
1015451
100
AcDbEntity
  8
0
100
AcDbBlockEnd
  0
BLOCK
  5
1015460
330
101545F
100
AcDbEntity
  8
0
100
AcDbBlockBegin
  2
*D28
 70
     1
 10
0.0
 20
0.0
 30
0.0
  3
*D28
  1

  0
LINE
  5
1015B3F
330
101545F
100
AcDbEntity
  8
quote
 62
     0
440
 16777216
370
    -2
100
AcDbLine
 10
832.5201793378175
 20
550.7493584493543
 30
0.0
 11
828.8122521115463
 21
552.2497836173232
 31
0.0
  0
MTEXT
  5
1015B40
330
101545F
100
AcDbEntity
  8
quote
 62
     0
440
 16777216
100
AcDbMText
 10
837.2477865513138
 20
548.8363163601936
 30
0.0
 40
6.0
 41
0.0
 46
0.0
 71
     5
 72
     1
  1
\A1;∅2
 11
0.9269818065678627
 21
-0.3751062919922585
 31
0.0
 73
     1
 44
1.0
  0
SOLID
  5
1015B41
330
101545F
100
AcDbEntity
  8
quote
 62
     0
440
 16777216
100
AcDbTrace
 10
829.0623229728744
 20
552.8677714883684
 30
0.0
 11
828.5621812502181
 21
551.631795746278
 31
0.0
 12
825.1043248852747
 22
553.7502087852923
 32
0.0
 13
825.1043248852747
 23
553.7502087852923
 33
0.0
  0
LINE
  5
1015B42
330
101545F
100
AcDbEntity
  8
quote
 62
     0
440
 16777216
370
    -2
100
AcDbLine
 10
824.0873430787067
 20
554.1253150772846
 30
0.0
 11
824.2673430787068
 21
554.1253150772846
 31
0.0
  0
LINE
  5
1015B43
330
101545F
100
AcDbEntity
  8
quote
 62
     0
440
 16777216
370
    -2
100
AcDbLine
 10
824.1773430787066
 20
554.0353150772847
 30
0.0
 11
824.1773430787066
 21
554.2153150772846
 31
0.0
  0
POINT
  5
1015B44
330
101545F
100
AcDbEntity
  8
Defpoints
 62
     0
440
 16777216
100
AcDbPoint
 10
825.1043248852747
 20
553.7502087852923
 30
0.0
  0
POINT
  5
1015B45
330
101545F
100
AcDbEntity
  8
Defpoints
 62
     0
440
 16777216
100
AcDbPoint
 10
823.2503612721384
 20
554.500421369277
 30
0.0
  0
ENDBLK
  5
1015461
330
101545F
100
AcDbEntity
  8
0
100
AcDbBlockEnd
  0
BLOCK
  5
101546A
330
1015469
100
AcDbEntity
  8
0
100
AcDbBlockBegin
  2
*D29
 70
     1
 10
0.0
 20
0.0
 30
0.0
  3
*D29
  1

  0
LINE
  5
1015B35
330
1015469
100
AcDbEntity
  8
quote
 62
     0
440
 16777216
370
    -2
100
AcDbLine
 10
582.1200946034646
 20
554.1878150772843
 30
0.0
 11
582.1200946034646
 21
581.3971155240571
 31
0.0
  0
LINE
  5
1015B36
330
1015469
100
AcDbEntity
  8
quote
 62
     0
440
 16777216
370
    -2
100
AcDbLine
 10
497.4700946034645
 20
564.1878150772845
 30
0.0
 11
497.4700946034645
 21
581.3971155240571
 31
0.0
  0
LINE
  5
1015B37
330
1015469
100
AcDbEntity
  8
quote
 62
     0
440
 16777216
370
    -2
100
AcDbLine
 10
578.1200946034646
 20
581.2171155240571
 30
0.0
 11
548.8950946034646
 21
581.2171155240571
 31
0.0
  0
LINE
  5
1015B38
330
1015469
100
AcDbEntity
  8
quote
 62
     0
440
 16777216
370
    -2
100
AcDbLine
 10
501.4700946034645
 20
581.2171155240571
 30
0.0
 11
530.6950946034645
 21
581.2171155240571
 31
0.0
  0
SOLID
  5
1015B39
330
1015469
100
AcDbEntity
  8
quote
 62
     0
440
 16777216
100
AcDbTrace
 10
578.1200946034646
 20
581.8837821907237
 30
0.0
 11
578.1200946034646
 21
580.5504488573904
 31
0.0
 12
582.1200946034646
 22
581.2171155240571
 32
0.0
 13
582.1200946034646
 23
581.2171155240571
 33
0.0
  0
SOLID
  5
1015B3A
330
1015469
100
AcDbEntity
  8
quote
 62
     0
440
 16777216
100
AcDbTrace
 10
501.4700946034645
 20
581.8837821907237
 30
0.0
 11
501.4700946034645
 21
580.5504488573904
 31
0.0
 12
497.4700946034645
 22
581.2171155240571
 32
0.0
 13
497.4700946034645
 23
581.2171155240571
 33
0.0
  0
MTEXT
  5
1015B3B
330
1015469
100
AcDbEntity
  8
quote
 62
     0
440
 16777216
100
AcDbMText
 10
539.7950946034645
 20
581.2171155240571
 30
0.0
 40
6.0
 41
0.0
 46
0.0
 71
     5
 72
     1
  1
\A1;84.7
 73
     1
 44
1.0
  0
POINT
  5
1015B3C
330
1015469
100
AcDbEntity
  8
Defpoints
 62
     0
440
 16777216
100
AcDbPoint
 10
582.1200946034646
 20
554.1253150772843
 30
0.0
  0
POINT
  5
1015B3D
330
1015469
100
AcDbEntity
  8
Defpoints
 62
     0
440
 16777216
100
AcDbPoint
 10
497.4700946034645
 20
564.1253150772845
 30
0.0
  0
POINT
  5
1015B3E
330
1015469
100
AcDbEntity
  8
Defpoints
 62
     0
440
 16777216
100
AcDbPoint
 10
497.4700946034645
 20
581.2171155240571
 30
0.0
  0
ENDBLK
  5
101546B
330
1015469
100
AcDbEntity
  8
0
100
AcDbBlockEnd
  0
BLOCK
  5
1015477
330
1015476
100
AcDbEntity
  8
0
100
AcDbBlockBegin
  2
*D30
 70
     1
 10
0.0
 20
0.0
 30
0.0
  3
*D30
  1

  0
LINE
  5
1015B2B
330
1015476
100
AcDbEntity
  8
quote
 62
     0
440
 16777216
370
    -2
100
AcDbLine
 10
582.1122302271955
 20
564.1878150772845
 30
0.0
 11
582.1122302271955
 21
581.3971155240571
 31
0.0
  0
LINE
  5
1015B2C
330
1015476
100
AcDbEntity
  8
quote
 62
     0
440
 16777216
370
    -2
100
AcDbLine
 10
666.7543658509262
 20
564.1878150772845
 30
0.0
 11
666.7543658509262
 21
581.3971155240571
 31
0.0
  0
LINE
  5
1015B2D
330
1015476
100
AcDbEntity
  8
quote
 62
     0
440
 16777216
370
    -2
100
AcDbLine
 10
586.1122302271955
 20
581.2171155240571
 30
0.0
 11
615.3332980390608
 21
581.2171155240571
 31
0.0
  0
LINE
  5
1015B2E
330
1015476
100
AcDbEntity
  8
quote
 62
     0
440
 16777216
370
    -2
100
AcDbLine
 10
662.7543658509262
 20
581.2171155240571
 30
0.0
 11
633.5332980390609
 21
581.2171155240571
 31
0.0
  0
SOLID
  5
1015B2F
330
1015476
100
AcDbEntity
  8
quote
 62
     0
440
 16777216
100
AcDbTrace
 10
586.1122302271955
 20
581.8837821907237
 30
0.0
 11
586.1122302271955
 21
580.5504488573904
 31
0.0
 12
582.1122302271955
 22
581.2171155240571
 32
0.0
 13
582.1122302271955
 23
581.2171155240571
 33
0.0
  0
SOLID
  5
1015B30
330
1015476
100
AcDbEntity
  8
quote
 62
     0
440
 16777216
100
AcDbTrace
 10
662.7543658509262
 20
581.8837821907237
 30
0.0
 11
662.7543658509262
 21
580.5504488573904
 31
0.0
 12
666.7543658509262
 22
581.2171155240571
 32
0.0
 13
666.7543658509262
 23
581.2171155240571
 33
0.0
  0
MTEXT
  5
1015B31
330
1015476
100
AcDbEntity
  8
quote
 62
     0
440
 16777216
100
AcDbMText
 10
624.4332980390609
 20
581.2171155240571
 30
0.0
 40
6.0
 41
0.0
 46
0.0
 71
     5
 72
     1
  1
\A1;84.6
 73
     1
 44
1.0
  0
POINT
  5
1015B32
330
1015476
100
AcDbEntity
  8
Defpoints
 62
     0
440
 16777216
100
AcDbPoint
 10
582.1122302271955
 20
564.1253150772845
 30
0.0
  0
POINT
  5
1015B33
330
1015476
100
AcDbEntity
  8
Defpoints
 62
     0
440
 16777216
100
AcDbPoint
 10
666.7543658509262
 20
564.1253150772845
 30
0.0
  0
POINT
  5
1015B34
330
1015476
100
AcDbEntity
  8
Defpoints
 62
     0
440
 16777216
100
AcDbPoint
 10
666.7543658509262
 20
581.2171155240571
 30
0.0
  0
ENDBLK
  5
1015478
330
1015476
100
AcDbEntity
  8
0
100
AcDbBlockEnd
  0
BLOCK
  5
1015484
330
1015483
100
AcDbEntity
  8
0
100
AcDbBlockBegin
  2
*D31
 70
     1
 10
0.0
 20
0.0
 30
0.0
  3
*D31
  1

  0
LINE
  5
1015B21
330
1015483
100
AcDbEntity
  8
quote
 62
     0
440
 16777216
370
    -2
100
AcDbLine
 10
497.4700946034645
 20
564.1878150772843
 30
0.0
 11
497.4700946034645
 21
602.2877145776647
 31
0.0
  0
LINE
  5
1015B22
330
1015483
100
AcDbEntity
  8
quote
 62
     0
440
 16777216
370
    -2
100
AcDbLine
 10
666.7543658509262
 20
564.1878150772845
 30
0.0
 11
666.7543658509262
 21
602.2877145776647
 31
0.0
  0
LINE
  5
1015B23
330
1015483
100
AcDbEntity
  8
quote
 62
     0
440
 16777216
370
    -2
100
AcDbLine
 10
501.4700946034645
 20
602.1077145776648
 30
0.0
 11
571.0122302271953
 21
602.1077145776648
 31
0.0
  0
LINE
  5
1015B24
330
1015483
100
AcDbEntity
  8
quote
 62
     0
440
 16777216
370
    -2
100
AcDbLine
 10
662.7543658509262
 20
602.1077145776648
 30
0.0
 11
593.2122302271953
 21
602.1077145776648
 31
0.0
  0
SOLID
  5
1015B25
330
1015483
100
AcDbEntity
  8
quote
 62
     0
440
 16777216
100
AcDbTrace
 10
501.4700946034645
 20
602.7743812443315
 30
0.0
 11
501.4700946034645
 21
601.4410479109982
 31
0.0
 12
497.4700946034645
 22
602.1077145776648
 32
0.0
 13
497.4700946034645
 23
602.1077145776648
 33
0.0
  0
SOLID
  5
1015B26
330
1015483
100
AcDbEntity
  8
quote
 62
     0
440
 16777216
100
AcDbTrace
 10
662.7543658509262
 20
602.7743812443315
 30
0.0
 11
662.7543658509262
 21
601.4410479109982
 31
0.0
 12
666.7543658509262
 22
602.1077145776648
 32
0.0
 13
666.7543658509262
 23
602.1077145776648
 33
0.0
  0
MTEXT
  5
1015B27
330
1015483
100
AcDbEntity
  8
quote
 62
     0
440
 16777216
100
AcDbMText
 10
582.1122302271954
 20
602.1077145776648
 30
0.0
 40
6.0
 41
0.0
 46
0.0
 71
     5
 72
     1
  1
\A1;169.3
 73
     1
 44
1.0
  0
POINT
  5
1015B28
330
1015483
100
AcDbEntity
  8
Defpoints
 62
     0
440
 16777216
100
AcDbPoint
 10
497.4700946034645
 20
564.1253150772842
 30
0.0
  0
POINT
  5
1015B29
330
1015483
100
AcDbEntity
  8
Defpoints
 62
     0
440
 16777216
100
AcDbPoint
 10
666.7543658509262
 20
564.1253150772845
 30
0.0
  0
POINT
  5
1015B2A
330
1015483
100
AcDbEntity
  8
Defpoints
 62
     0
440
 16777216
100
AcDbPoint
 10
666.7543658509262
 20
602.1077145776648
 30
0.0
  0
ENDBLK
  5
1015485
330
1015483
100
AcDbEntity
  8
0
100
AcDbBlockEnd
  0
BLOCK
  5
1015491
330
1015490
100
AcDbEntity
  8
0
100
AcDbBlockBegin
  2
*D32
 70
     1
 10
0.0
 20
0.0
 30
0.0
  3
*D32
  1

  0
LINE
  5
1015B16
330
1015490
100
AcDbEntity
  8
quote
 62
     0
440
 16777216
370
    -2
100
AcDbLine
 10
1163.176314251335
 20
332.0628150772845
 30
0.0
 11
1163.176314251335
 21
312.5294347633322
 31
0.0
  0
LINE
  5
1015B17
330
1015490
100
AcDbEntity
  8
quote
 62
     0
440
 16777216
370
    -2
100
AcDbLine
 10
1173.176314251335
 20
332.0628150772845
 30
0.0
 11
1173.176314251335
 21
312.5294347633322
 31
0.0
  0
LINE
  5
1015B18
330
1015490
100
AcDbEntity
  8
quote
 62
     0
440
 16777216
370
    -2
100
AcDbLine
 10
1167.176314251335
 20
312.7094347633322
 30
0.0
 11
1169.176314251335
 21
312.7094347633322
 31
0.0
  0
LINE
  5
1015B19
330
1015490
100
AcDbEntity
  8
quote
 62
     0
440
 16777216
370
    -2
100
AcDbLine
 10
1168.176314251335
 20
312.7094347633322
 30
0.0
 11
1175.032163219881
 21
303.4094347633322
 31
0.0
  0
LINE
  5
1015B1A
330
1015490
100
AcDbEntity
  8
quote
 62
     0
440
 16777216
370
    -2
100
AcDbLine
 10
1175.032163219881
 20
303.4094347633322
 30
0.0
 11
1175.232163219881
 21
303.4094347633322
 31
0.0
  0
MTEXT
  5
1015B1B
330
1015490
100
AcDbEntity
  8
quote
 62
     0
440
 16777216
100
AcDbMText
 10
1178.832163219881
 20
303.4094347633322
 30
0.0
 40
6.0
 41
0.0
 46
0.0
 71
     5
 72
     1
  1
\A1;10
 73
     1
 44
1.0
  0
SOLID
  5
1015B1C
330
1015490
100
AcDbEntity
  8
quote
 62
     0
440
 16777216
100
AcDbTrace
 10
1167.176314251335
 20
313.3761014299988
 30
0.0
 11
1167.176314251335
 21
312.0427680966655
 31
0.0
 12
1163.176314251335
 22
312.7094347633322
 32
0.0
 13
1163.176314251335
 23
312.7094347633322
 33
0.0
  0
SOLID
  5
1015B1D
330
1015490
100
AcDbEntity
  8
quote
 62
     0
440
 16777216
100
AcDbTrace
 10
1169.176314251335
 20
313.3761014299988
 30
0.0
 11
1169.176314251335
 21
312.0427680966655
 31
0.0
 12
1173.176314251335
 22
312.7094347633322
 32
0.0
 13
1173.176314251335
 23
312.7094347633322
 33
0.0
  0
POINT
  5
1015B1E
330
1015490
100
AcDbEntity
  8
Defpoints
 62
     0
440
 16777216
100
AcDbPoint
 10
1163.176314251335
 20
332.1253150772845
 30
0.0
  0
POINT
  5
1015B1F
330
1015490
100
AcDbEntity
  8
Defpoints
 62
     0
440
 16777216
100
AcDbPoint
 10
1173.176314251335
 20
332.1253150772845
 30
0.0
  0
POINT
  5
1015B20
330
1015490
100
AcDbEntity
  8
Defpoints
 62
     0
440
 16777216
100
AcDbPoint
 10
1173.176314251335
 20
312.7094347633322
 30
0.0
  0
ENDBLK
  5
1015492
330
1015490
100
AcDbEntity
  8
0
100
AcDbBlockEnd
  0
BLOCK
  5
101549F
330
101549E
100
AcDbEntity
  8
0
100
AcDbBlockBegin
  2
*D33
 70
     1
 10
0.0
 20
0.0
 30
0.0
  3
*D33
  1

  0
LINE
  5
1015B0C
330
101549E
100
AcDbEntity
  8
quote
 62
     0
440
 16777216
370
    -2
100
AcDbLine
 10
1003.892043003872
 20
332.0628150772845
 30
0.0
 11
1003.892043003872
 21
292.2045762593617
 31
0.0
  0
LINE
  5
1015B0D
330
101549E
100
AcDbEntity
  8
quote
 62
     0
440
 16777216
370
    -2
100
AcDbLine
 10
1173.176314251335
 20
332.0628150772845
 30
0.0
 11
1173.176314251335
 21
292.2045762593617
 31
0.0
  0
LINE
  5
1015B0E
330
101549E
100
AcDbEntity
  8
quote
 62
     0
440
 16777216
370
    -2
100
AcDbLine
 10
1007.892043003872
 20
292.3845762593617
 30
0.0
 11
1077.434178627604
 21
292.3845762593617
 31
0.0
  0
LINE
  5
1015B0F
330
101549E
100
AcDbEntity
  8
quote
 62
     0
440
 16777216
370
    -2
100
AcDbLine
 10
1169.176314251335
 20
292.3845762593617
 30
0.0
 11
1099.634178627604
 21
292.3845762593617
 31
0.0
  0
SOLID
  5
1015B10
330
101549E
100
AcDbEntity
  8
quote
 62
     0
440
 16777216
100
AcDbTrace
 10
1007.892043003872
 20
293.0512429260284
 30
0.0
 11
1007.892043003872
 21
291.717909592695
 31
0.0
 12
1003.892043003872
 22
292.3845762593617
 32
0.0
 13
1003.892043003872
 23
292.3845762593617
 33
0.0
  0
SOLID
  5
1015B11
330
101549E
100
AcDbEntity
  8
quote
 62
     0
440
 16777216
100
AcDbTrace
 10
1169.176314251335
 20
293.0512429260284
 30
0.0
 11
1169.176314251335
 21
291.717909592695
 31
0.0
 12
1173.176314251335
 22
292.3845762593617
 32
0.0
 13
1173.176314251335
 23
292.3845762593617
 33
0.0
  0
MTEXT
  5
1015B12
330
101549E
100
AcDbEntity
  8
quote
 62
     0
440
 16777216
100
AcDbMText
 10
1088.534178627604
 20
292.3845762593617
 30
0.0
 40
6.0
 41
0.0
 46
0.0
 71
     5
 72
     1
  1
\A1;169.3
 73
     1
 44
1.0
  0
POINT
  5
1015B13
330
101549E
100
AcDbEntity
  8
Defpoints
 62
     0
440
 16777216
100
AcDbPoint
 10
1003.892043003872
 20
332.1253150772845
 30
0.0
  0
POINT
  5
1015B14
330
101549E
100
AcDbEntity
  8
Defpoints
 62
     0
440
 16777216
100
AcDbPoint
 10
1173.176314251335
 20
332.1253150772845
 30
0.0
  0
POINT
  5
1015B15
330
101549E
100
AcDbEntity
  8
Defpoints
 62
     0
440
 16777216
100
AcDbPoint
 10
1173.176314251335
 20
292.3845762593617
 30
0.0
  0
ENDBLK
  5
10154A0
330
101549E
100
AcDbEntity
  8
0
100
AcDbBlockEnd
  0
BLOCK
  5
10154AC
330
10154AB
100
AcDbEntity
  8
0
100
AcDbBlockBegin
  2
*D34
 70
     1
 10
0.0
 20
0.0
 30
0.0
  3
*D34
  1

  0
LINE
  5
1015B02
330
10154AB
100
AcDbEntity
  8
quote
 62
     0
440
 16777216
370
    -2
100
AcDbLine
 10
800.1321200775104
 20
535.7968496559985
 30
0.0
 11
778.5751915437515
 21
514.2399211222396
 31
0.0
  0
LINE
  5
1015B03
330
10154AB
100
AcDbEntity
  8
quote
 62
     0
440
 16777216
370
    -2
100
AcDbLine
 10
1003.847848830048
 20
332.0811209034603
 30
0.0
 11
982.2909202962893
 21
310.5241923697014
 31
0.0
  0
LINE
  5
1015B04
330
10154AB
100
AcDbEntity
  8
quote
 62
     0
440
 16777216
370
    -2
100
AcDbLine
 10
781.5308978891112
 20
511.5387732181069
 30
0.0
 11
872.7114498694632
 21
420.3582212377548
 31
0.0
  0
LINE
  5
1015B05
330
10154AB
100
AcDbEntity
  8
quote
 62
     0
440
 16777216
370
    -2
100
AcDbLine
 10
979.5897723921566
 20
313.4798987150612
 30
0.0
 11
888.4092204118045
 21
404.6604506954134
 31
0.0
  0
SOLID
  5
1015B06
330
10154AB
100
AcDbEntity
  8
quote
 62
     0
440
 16777216
100
AcDbTrace
 10
782.0023024099023
 20
512.0101777388979
 30
0.0
 11
781.0594933683203
 21
511.067368697316
 31
0.0
 12
778.702470764365
 22
514.3672003428532
 32
0.0
 13
778.702470764365
 23
514.3672003428532
 33
0.0
  0
SOLID
  5
1015B07
330
10154AB
100
AcDbEntity
  8
quote
 62
     0
440
 16777216
100
AcDbTrace
 10
980.0611769129478
 20
313.9513032358522
 30
0.0
 11
979.1183678713657
 21
313.0084941942702
 31
0.0
 12
982.4181995169029
 22
310.651471590315
 32
0.0
 13
982.4181995169029
 23
310.651471590315
 33
0.0
  0
MTEXT
  5
1015B08
330
10154AB
100
AcDbEntity
  8
quote
 62
     0
440
 16777216
100
AcDbMText
 10
880.560335140634
 20
412.509335966584
 30
0.0
 40
6.0
 41
0.0
 46
0.0
 71
     5
 72
     1
  1
\A1;288.1
 11
0.707106781186547
 21
-0.7071067811865481
 31
0.0
 73
     1
 44
1.0
  0
POINT
  5
1015B09
330
10154AB
100
AcDbEntity
  8
Defpoints
 62
     0
440
 16777216
100
AcDbPoint
 10
800.1763142513345
 20
535.8410438298226
 30
0.0
  0
POINT
  5
1015B0A
330
10154AB
100
AcDbEntity
  8
Defpoints
 62
     0
440
 16777216
100
AcDbPoint
 10
1003.892043003872
 20
332.1253150772845
 30
0.0
  0
POINT
  5
1015B0B
330
10154AB
100
AcDbEntity
  8
Defpoints
 62
     0
440
 16777216
100
AcDbPoint
 10
982.4181995169029
 20
310.651471590315
 30
0.0
  0
ENDBLK
  5
10154AD
330
10154AB
100
AcDbEntity
  8
0
100
AcDbBlockEnd
  0
BLOCK
  5
10154B9
330
10154B8
100
AcDbEntity
  8
0
100
AcDbBlockBegin
  2
*D35
 70
     1
 10
0.0
 20
0.0
 30
0.0
  3
*D35
  1

  0
LINE
  5
1015AF8
330
10154B8
100
AcDbEntity
  8
quote
 62
     0
440
 16777216
370
    -2
100
AcDbLine
 10
666.7985600247503
 20
564.1695092511087
 30
0.0
 11
682.6421896639667
 21
580.0131388903251
 31
0.0
  0
LINE
  5
1015AF9
330
10154B8
100
AcDbEntity
  8
quote
 62
     0
440
 16777216
370
    -2
100
AcDbLine
 10
870.5142887772883
 20
360.4537804985714
 30
0.0
 11
886.3579184165045
 21
376.2974101377877
 31
0.0
  0
LINE
  5
1015AFA
330
10154B8
100
AcDbEntity
  8
quote
 62
     0
440
 16777216
370
    -2
100
AcDbLine
 10
685.3433375680993
 20
577.0574325449652
 30
0.0
 11
776.5238895484515
 21
485.8768805646134
 31
0.0
  0
LINE
  5
1015AFB
330
10154B8
100
AcDbEntity
  8
quote
 62
     0
440
 16777216
370
    -2
100
AcDbLine
 10
883.4022120711447
 20
378.9985580419203
 30
0.0
 11
792.2216600907928
 21
470.179110022272
 31
0.0
  0
SOLID
  5
1015AFC
330
10154B8
100
AcDbEntity
  8
quote
 62
     0
440
 16777216
100
AcDbTrace
 10
685.8147420888903
 20
577.5288370657563
 30
0.0
 11
684.8719330473084
 21
576.5860280241743
 31
0.0
 12
682.5149104433531
 22
579.8858596697114
 32
0.0
 13
682.5149104433531
 23
579.8858596697114
 33
0.0
  0
SOLID
  5
1015AFD
330
10154B8
100
AcDbEntity
  8
quote
 62
     0
440
 16777216
100
AcDbTrace
 10
883.8736165919359
 20
379.4699625627113
 30
0.0
 11
882.9308075503538
 21
378.5271535211293
 31
0.0
 12
886.230639195891
 22
376.1701309171741
 32
0.0
 13
886.230639195891
 23
376.1701309171741
 33
0.0
  0
MTEXT
  5
1015AFE
330
10154B8
100
AcDbEntity
  8
quote
 62
     0
440
 16777216
100
AcDbMText
 10
784.3727748196221
 20
478.0279952934429
 30
0.0
 40
6.0
 41
0.0
 46
0.0
 71
     5
 72
     1
  1
\A1;288.1
 11
0.7071067811865483
 21
-0.707106781186547
 31
0.0
 73
     1
 44
1.0
  0
POINT
  5
1015AFF
330
10154B8
100
AcDbEntity
  8
Defpoints
 62
     0
440
 16777216
100
AcDbPoint
 10
666.754365850926
 20
564.1253150772845
 30
0.0
  0
POINT
  5
1015B00
330
10154B8
100
AcDbEntity
  8
Defpoints
 62
     0
440
 16777216
100
AcDbPoint
 10
870.4700946034641
 20
360.4095863247473
 30
0.0
  0
POINT
  5
1015B01
330
10154B8
100
AcDbEntity
  8
Defpoints
 62
     0
440
 16777216
100
AcDbPoint
 10
886.230639195891
 20
376.1701309171741
 30
0.0
  0
ENDBLK
  5
10154BA
330
10154B8
100
AcDbEntity
  8
0
100
AcDbBlockEnd
  0
BLOCK
  5
10154C6
330
10154C5
100
AcDbEntity
  8
0
100
AcDbBlockBegin
  2
*D36
 70
     1
 10
0.0
 20
0.0
 30
0.0
  3
*D36
  1

  0
LINE
  5
1015AEE
330
10154C5
100
AcDbEntity
  8
quote
 62
     0
440
 16777216
370
    -2
100
AcDbLine
 10
800.113814251336
 20
564.1253150772847
 30
0.0
 11
774.1723425840486
 21
564.1253150772847
 31
0.0
  0
LINE
  5
1015AEF
330
10154C5
100
AcDbEntity
  8
quote
 62
     0
440
 16777216
370
    -2
100
AcDbLine
 10
800.1138142513351
 20
535.8410438298228
 30
0.0
 11
774.1723425840486
 21
535.8410438298228
 31
0.0
  0
LINE
  5
1015AF0
330
10154C5
100
AcDbEntity
  8
quote
 62
     0
440
 16777216
370
    -2
100
AcDbLine
 10
774.3523425840487
 20
560.1253150772847
 30
0.0
 11
774.3523425840487
 21
559.0831794535538
 31
0.0
  0
LINE
  5
1015AF1
330
10154C5
100
AcDbEntity
  8
quote
 62
     0
440
 16777216
370
    -2
100
AcDbLine
 10
774.3523425840487
 20
539.8410438298228
 30
0.0
 11
774.3523425840487
 21
540.8831794535537
 31
0.0
  0
SOLID
  5
1015AF2
330
10154C5
100
AcDbEntity
  8
quote
 62
     0
440
 16777216
100
AcDbTrace
 10
773.685675917382
 20
560.1253150772847
 30
0.0
 11
775.0190092507152
 21
560.1253150772847
 31
0.0
 12
774.3523425840487
 22
564.1253150772847
 32
0.0
 13
774.3523425840487
 23
564.1253150772847
 33
0.0
  0
SOLID
  5
1015AF3
330
10154C5
100
AcDbEntity
  8
quote
 62
     0
440
 16777216
100
AcDbTrace
 10
773.685675917382
 20
539.8410438298228
 30
0.0
 11
775.0190092507152
 21
539.8410438298228
 31
0.0
 12
774.3523425840487
 22
535.8410438298228
 32
0.0
 13
774.3523425840487
 23
535.8410438298228
 33
0.0
  0
MTEXT
  5
1015AF4
330
10154C5
100
AcDbEntity
  8
quote
 62
     0
440
 16777216
100
AcDbMText
 10
774.3523425840485
 20
549.9831794535534
 30
0.0
 40
6.0
 41
0.0
 46
0.0
 71
     5
 72
     1
  1
\A1;28.3
 11
0.0000000000000001
 21
1.0
 31
0.0
 73
     1
 44
1.0
  0
POINT
  5
1015AF5
330
10154C5
100
AcDbEntity
  8
Defpoints
 62
     0
440
 16777216
100
AcDbPoint
 10
800.1763142513359
 20
564.1253150772847
 30
0.0
  0
POINT
  5
1015AF6
330
10154C5
100
AcDbEntity
  8
Defpoints
 62
     0
440
 16777216
100
AcDbPoint
 10
800.176314251335
 20
535.8410438298228
 30
0.0
  0
POINT
  5
1015AF7
330
10154C5
100
AcDbEntity
  8
Defpoints
 62
     0
440
 16777216
100
AcDbPoint
 10
774.3523425840487
 20
535.8410438298228
 30
0.0
  0
ENDBLK
  5
10154C7
330
10154C5
100
AcDbEntity
  8
0
100
AcDbBlockEnd
  0
BLOCK
  5
10154D3
330
10154D2
100
AcDbEntity
  8
0
100
AcDbBlockBegin
  2
*D37
 70
     1
 10
0.0
 20
0.0
 30
0.0
  3
*D37
  1

  0
LINE
  5
1015AE4
330
10154D2
100
AcDbEntity
  8
quote
 62
     0
440
 16777216
370
    -2
100
AcDbLine
 10
783.9700946034645
 20
332.0628150772845
 30
0.0
 11
783.9700946034645
 21
312.1961014299989
 31
0.0
  0
LINE
  5
1015AE5
330
10154D2
100
AcDbEntity
  8
quote
 62
     0
440
 16777216
370
    -2
100
AcDbLine
 10
870.4700946034641
 20
332.0628150772845
 30
0.0
 11
870.4700946034641
 21
312.1961014299989
 31
0.0
  0
LINE
  5
1015AE6
330
10154D2
100
AcDbEntity
  8
quote
 62
     0
440
 16777216
370
    -2
100
AcDbLine
 10
787.9700946034645
 20
312.3761014299989
 30
0.0
 11
818.1200946034643
 21
312.3761014299989
 31
0.0
  0
LINE
  5
1015AE7
330
10154D2
100
AcDbEntity
  8
quote
 62
     0
440
 16777216
370
    -2
100
AcDbLine
 10
866.470094603464
 20
312.3761014299989
 30
0.0
 11
836.3200946034643
 21
312.3761014299989
 31
0.0
  0
SOLID
  5
1015AE8
330
10154D2
100
AcDbEntity
  8
quote
 62
     0
440
 16777216
100
AcDbTrace
 10
787.9700946034645
 20
313.0427680966656
 30
0.0
 11
787.9700946034645
 21
311.7094347633322
 31
0.0
 12
783.9700946034645
 22
312.3761014299989
 32
0.0
 13
783.9700946034645
 23
312.3761014299989
 33
0.0
  0
SOLID
  5
1015AE9
330
10154D2
100
AcDbEntity
  8
quote
 62
     0
440
 16777216
100
AcDbTrace
 10
866.470094603464
 20
313.0427680966656
 30
0.0
 11
866.470094603464
 21
311.7094347633322
 31
0.0
 12
870.4700946034641
 22
312.3761014299989
 32
0.0
 13
870.4700946034641
 23
312.3761014299989
 33
0.0
  0
MTEXT
  5
1015AEA
330
10154D2
100
AcDbEntity
  8
quote
 62
     0
440
 16777216
100
AcDbMText
 10
827.2200946034642
 20
312.3761014299989
 30
0.0
 40
6.0
 41
0.0
 46
0.0
 71
     5
 72
     1
  1
\A1;86.5
 73
     1
 44
1.0
  0
POINT
  5
1015AEB
330
10154D2
100
AcDbEntity
  8
Defpoints
 62
     0
440
 16777216
100
AcDbPoint
 10
783.9700946034645
 20
332.1253150772845
 30
0.0
  0
POINT
  5
1015AEC
330
10154D2
100
AcDbEntity
  8
Defpoints
 62
     0
440
 16777216
100
AcDbPoint
 10
870.4700946034641
 20
332.1253150772845
 30
0.0
  0
POINT
  5
1015AED
330
10154D2
100
AcDbEntity
  8
Defpoints
 62
     0
440
 16777216
100
AcDbPoint
 10
870.4700946034641
 20
312.3761014299989
 30
0.0
  0
ENDBLK
  5
10154D4
330
10154D2
100
AcDbEntity
  8
0
100
AcDbBlockEnd
  0
BLOCK
  5
10154E0
330
10154DF
100
AcDbEntity
  8
0
100
AcDbBlockBegin
  2
*D38
 70
     1
 10
0.0
 20
0.0
 30
0.0
  3
*D38
  1

  0
LINE
  5
1015ADA
330
10154DF
100
AcDbEntity
  8
quote
 62
     0
440
 16777216
370
    -2
100
AcDbLine
 10
1173.238814251335
 20
564.1061250772845
 30
0.0
 11
1203.652661770427
 21
564.1061250772845
 31
0.0
  0
LINE
  5
1015ADB
330
10154DF
100
AcDbEntity
  8
quote
 62
     0
440
 16777216
370
    -2
100
AcDbLine
 10
1173.238814246916
 20
332.1061250772849
 30
0.0
 11
1203.652661770427
 21
332.1061250772849
 31
0.0
  0
LINE
  5
1015ADC
330
10154DF
100
AcDbEntity
  8
quote
 62
     0
440
 16777216
370
    -2
100
AcDbLine
 10
1203.472661770427
 20
560.1061250772845
 30
0.0
 11
1203.472661770427
 21
456.2061250772848
 31
0.0
  0
LINE
  5
1015ADD
330
10154DF
100
AcDbEntity
  8
quote
 62
     0
440
 16777216
370
    -2
100
AcDbLine
 10
1203.472661770427
 20
336.1061250772849
 30
0.0
 11
1203.472661770427
 21
440.0061250772847
 31
0.0
  0
SOLID
  5
1015ADE
330
10154DF
100
AcDbEntity
  8
quote
 62
     0
440
 16777216
100
AcDbTrace
 10
1202.80599510376
 20
560.1061250772845
 30
0.0
 11
1204.139328437094
 21
560.1061250772845
 31
0.0
 12
1203.472661770427
 22
564.1061250772845
 32
0.0
 13
1203.472661770427
 23
564.1061250772845
 33
0.0
  0
SOLID
  5
1015ADF
330
10154DF
100
AcDbEntity
  8
quote
 62
     0
440
 16777216
100
AcDbTrace
 10
1202.805995103761
 20
336.1061250772849
 30
0.0
 11
1204.139328437094
 21
336.1061250772849
 31
0.0
 12
1203.472661770427
 22
332.1061250772849
 32
0.0
 13
1203.472661770427
 23
332.1061250772849
 33
0.0
  0
MTEXT
  5
1015AE0
330
10154DF
100
AcDbEntity
  8
quote
 62
     0
440
 16777216
100
AcDbMText
 10
1203.472661770427
 20
448.1061250772843
 30
0.0
 40
6.0
 41
0.0
 46
0.0
 71
     5
 72
     1
  1
\A1;232
 11
0.0000000000000001
 21
1.0
 31
0.0
 73
     1
 44
1.0
  0
POINT
  5
1015AE1
330
10154DF
100
AcDbEntity
  8
Defpoints
 62
     0
440
 16777216
100
AcDbPoint
 10
1173.176314251335
 20
564.1061250772845
 30
0.0
  0
POINT
  5
1015AE2
330
10154DF
100
AcDbEntity
  8
Defpoints
 62
     0
440
 16777216
100
AcDbPoint
 10
1173.176314246916
 20
332.1061250772849
 30
0.0
  0
POINT
  5
1015AE3
330
10154DF
100
AcDbEntity
  8
Defpoints
 62
     0
440
 16777216
100
AcDbPoint
 10
1203.472661770427
 20
332.1061250772849
 30
0.0
  0
ENDBLK
  5
10154E1
330
10154DF
100
AcDbEntity
  8
0
100
AcDbBlockEnd
  0
BLOCK
  5
1015872
330
1015871
100
AcDbEntity
  8
0
100
AcDbBlockBegin
  2
*D39
 70
     1
 10
0.0
 20
0.0
 30
0.0
  3
*D39
  1

  0
LINE
  5
1015CD6
330
1015871
100
AcDbEntity
  8
VITE
 62
     0
440
 16777216
370
    -2
100
AcDbLine
 10
1163.238814251335
 20
564.1061250772845
 30
0.0
 11
1187.232597032624
 21
564.1061250772845
 31
0.0
  0
LINE
  5
1015CD7
330
1015871
100
AcDbEntity
  8
VITE
 62
     0
440
 16777216
370
    -2
100
AcDbLine
 10
1163.238814251335
 20
554.1061250772846
 30
0.0
 11
1187.232597032624
 21
554.1061250772846
 31
0.0
  0
LINE
  5
1015CD8
330
1015871
100
AcDbEntity
  8
VITE
 62
     0
440
 16777216
370
    -2
100
AcDbLine
 10
1187.052597032624
 20
560.1061250772845
 30
0.0
 11
1187.052597032624
 21
558.1061250772846
 31
0.0
  0
LINE
  5
1015CD9
330
1015871
100
AcDbEntity
  8
VITE
 62
     0
440
 16777216
370
    -2
100
AcDbLine
 10
1187.052597032624
 20
559.1061250772845
 30
0.0
 11
1196.382597032623
 21
565.886206902272
 31
0.0
  0
LINE
  5
1015CDA
330
1015871
100
AcDbEntity
  8
VITE
 62
     0
440
 16777216
370
    -2
100
AcDbLine
 10
1196.382597032623
 20
565.886206902272
 30
0.0
 11
1196.382597032623
 21
566.0862069022721
 31
0.0
  0
MTEXT
  5
1015CDB
330
1015871
100
AcDbEntity
  8
VITE
 62
     0
440
 16777216
100
AcDbMText
 10
1196.382597032623
 20
569.6862069022715
 30
0.0
 40
6.0
 41
0.0
 46
0.0
 71
     5
 72
     1
  1
\A1;10
 11
0.0000000000000001
 21
1.0
 31
0.0
 73
     1
 44
1.0
  0
SOLID
  5
1015CDC
330
1015871
100
AcDbEntity
  8
VITE
 62
     0
440
 16777216
100
AcDbTrace
 10
1186.385930365957
 20
560.1061250772845
 30
0.0
 11
1187.719263699291
 21
560.1061250772845
 31
0.0
 12
1187.052597032624
 22
564.1061250772845
 32
0.0
 13
1187.052597032624
 23
564.1061250772845
 33
0.0
  0
SOLID
  5
1015CDD
330
1015871
100
AcDbEntity
  8
VITE
 62
     0
440
 16777216
100
AcDbTrace
 10
1186.385930365957
 20
558.1061250772846
 30
0.0
 11
1187.719263699291
 21
558.1061250772846
 31
0.0
 12
1187.052597032624
 22
554.1061250772846
 32
0.0
 13
1187.052597032624
 23
554.1061250772846
 33
0.0
  0
POINT
  5
1015CDE
330
1015871
100
AcDbEntity
  8
Defpoints
 62
     0
440
 16777216
100
AcDbPoint
 10
1163.176314251335
 20
564.1061250772845
 30
0.0
  0
POINT
  5
1015CDF
330
1015871
100
AcDbEntity
  8
Defpoints
 62
     0
440
 16777216
100
AcDbPoint
 10
1163.176314251335
 20
554.1061250772846
 30
0.0
  0
POINT
  5
1015CE0
330
1015871
100
AcDbEntity
  8
Defpoints
 62
     0
440
 16777216
100
AcDbPoint
 10
1187.052597032624
 20
554.1061250772846
 30
0.0
  0
ENDBLK
  5
1015873
330
1015871
100
AcDbEntity
  8
0
100
AcDbBlockEnd
  0
BLOCK
  5
1015895
330
1015894
100
AcDbEntity
  8
0
100
AcDbBlockBegin
  2
*D40
 70
     1
 10
0.0
 20
0.0
 30
0.0
  3
*D40
  1

  0
LINE
  5
1015CEB
330
1015894
100
AcDbEntity
  8
VITE
 62
     0
440
 16777216
370
    -2
100
AcDbLine
 10
800.113814251336
 20
564.1253150772847
 30
0.0
 11
793.7131269647906
 21
564.1253150772847
 31
0.0
  0
LINE
  5
1015CEC
330
1015894
100
AcDbEntity
  8
VITE
 62
     0
440
 16777216
370
    -2
100
AcDbLine
 10
824.0248430787071
 20
554.1253150772848
 30
0.0
 11
793.7131269647906
 21
554.1253150772848
 31
0.0
  0
LINE
  5
1015CED
330
1015894
100
AcDbEntity
  8
VITE
 62
     0
440
 16777216
370
    -2
100
AcDbLine
 10
793.8931269647905
 20
560.1253150772847
 30
0.0
 11
793.8931269647905
 21
558.1253150772848
 31
0.0
  0
LINE
  5
1015CEE
330
1015894
100
AcDbEntity
  8
VITE
 62
     0
440
 16777216
370
    -2
100
AcDbLine
 10
793.8931269647905
 20
559.1253150772849
 30
0.0
 11
783.8607404161018
 21
569.7806933594701
 31
0.0
  0
LINE
  5
1015CEF
330
1015894
100
AcDbEntity
  8
VITE
 62
     0
440
 16777216
370
    -2
100
AcDbLine
 10
783.8607404161018
 20
569.7806933594701
 30
0.0
 11
783.8607404161018
 21
569.9806933594701
 31
0.0
  0
MTEXT
  5
1015CF0
330
1015894
100
AcDbEntity
  8
VITE
 62
     0
440
 16777216
100
AcDbMText
 10
783.8607404161016
 20
573.5806933594696
 30
0.0
 40
6.0
 41
0.0
 46
0.0
 71
     5
 72
     1
  1
\A1;10
 11
0.0000000000000001
 21
1.0
 31
0.0
 73
     1
 44
1.0
  0
SOLID
  5
1015CF1
330
1015894
100
AcDbEntity
  8
VITE
 62
     0
440
 16777216
100
AcDbTrace
 10
793.2264602981239
 20
560.1253150772847
 30
0.0
 11
794.5597936314571
 21
560.1253150772847
 31
0.0
 12
793.8931269647905
 22
564.1253150772847
 32
0.0
 13
793.8931269647905
 23
564.1253150772847
 33
0.0
  0
SOLID
  5
1015CF2
330
1015894
100
AcDbEntity
  8
VITE
 62
     0
440
 16777216
100
AcDbTrace
 10
793.2264602981239
 20
558.1253150772848
 30
0.0
 11
794.5597936314571
 21
558.1253150772848
 31
0.0
 12
793.8931269647905
 22
554.1253150772848
 32
0.0
 13
793.8931269647905
 23
554.1253150772848
 33
0.0
  0
POINT
  5
1015CF3
330
1015894
100
AcDbEntity
  8
Defpoints
 62
     0
440
 16777216
100
AcDbPoint
 10
800.1763142513359
 20
564.1253150772847
 30
0.0
  0
POINT
  5
1015CF4
330
1015894
100
AcDbEntity
  8
Defpoints
 62
     0
440
 16777216
100
AcDbPoint
 10
824.0873430787072
 20
554.1253150772848
 30
0.0
  0
POINT
  5
1015CF5
330
1015894
100
AcDbEntity
  8
Defpoints
 62
     0
440
 16777216
100
AcDbPoint
 10
793.8931269647905
 20
554.1253150772848
 30
0.0
  0
ENDBLK
  5
1015896
330
1015894
100
AcDbEntity
  8
0
100
AcDbBlockEnd
  0
BLOCK
  5
1015AA4
330
1015AA3
100
AcDbEntity
  8
0
100
AcDbBlockBegin
  2
*D41
 70
     1
 10
0.0
 20
0.0
 30
0.0
  3
*D41
  1

  0
LINE
  5
1015ABB
330
1015AA3
100
AcDbEntity
  8
VITE
 62
     0
440
 16777216
370
    -2
100
AcDbLine
 10
1163.238814251336
 20
342.1253150772847
 30
0.0
 11
1187.235795365959
 21
342.1253150772847
 31
0.0
  0
LINE
  5
1015ABC
330
1015AA3
100
AcDbEntity
  8
VITE
 62
     0
440
 16777216
370
    -2
100
AcDbLine
 10
1173.238814251335
 20
332.1253150772847
 30
0.0
 11
1187.235795365959
 21
332.1253150772847
 31
0.0
  0
LINE
  5
1015ABD
330
1015AA3
100
AcDbEntity
  8
VITE
 62
     0
440
 16777216
370
    -2
100
AcDbLine
 10
1187.055795365959
 20
338.1253150772847
 30
0.0
 11
1187.055795365959
 21
336.1253150772847
 31
0.0
  0
LINE
  5
1015ABE
330
1015AA3
100
AcDbEntity
  8
VITE
 62
     0
440
 16777216
370
    -2
100
AcDbLine
 10
1187.055795365959
 20
337.1253150772846
 30
0.0
 11
1196.385795365959
 21
339.9243150772846
 31
0.0
  0
LINE
  5
1015ABF
330
1015AA3
100
AcDbEntity
  8
VITE
 62
     0
440
 16777216
370
    -2
100
AcDbLine
 10
1196.385795365959
 20
339.9243150772846
 30
0.0
 11
1196.385795365959
 21
340.1243150772846
 31
0.0
  0
MTEXT
  5
1015AC0
330
1015AA3
100
AcDbEntity
  8
VITE
 62
     0
440
 16777216
100
AcDbMText
 10
1196.385795365959
 20
343.7243150772843
 30
0.0
 40
6.0
 41
0.0
 46
0.0
 71
     5
 72
     1
  1
\A1;10
 11
0.0000000000000001
 21
1.0
 31
0.0
 73
     1
 44
1.0
  0
SOLID
  5
1015AC1
330
1015AA3
100
AcDbEntity
  8
VITE
 62
     0
440
 16777216
100
AcDbTrace
 10
1186.389128699292
 20
338.1253150772847
 30
0.0
 11
1187.722462032626
 21
338.1253150772847
 31
0.0
 12
1187.055795365959
 22
342.1253150772847
 32
0.0
 13
1187.055795365959
 23
342.1253150772847
 33
0.0
  0
SOLID
  5
1015AC2
330
1015AA3
100
AcDbEntity
  8
VITE
 62
     0
440
 16777216
100
AcDbTrace
 10
1186.389128699292
 20
336.1253150772847
 30
0.0
 11
1187.722462032626
 21
336.1253150772847
 31
0.0
 12
1187.055795365959
 22
332.1253150772847
 32
0.0
 13
1187.055795365959
 23
332.1253150772847
 33
0.0
  0
POINT
  5
1015AC3
330
1015AA3
100
AcDbEntity
  8
Defpoints
 62
     0
440
 16777216
100
AcDbPoint
 10
1163.176314251336
 20
342.1253150772847
 30
0.0
  0
POINT
  5
1015AC4
330
1015AA3
100
AcDbEntity
  8
Defpoints
 62
     0
440
 16777216
100
AcDbPoint
 10
1173.176314251335
 20
332.1253150772847
 30
0.0
  0
POINT
  5
1015AC5
330
1015AA3
100
AcDbEntity
  8
Defpoints
 62
     0
440
 16777216
100
AcDbPoint
 10
1187.055795365959
 20
332.1253150772847
 30
0.0
  0
ENDBLK
  5
1015AA5
330
1015AA3
100
AcDbEntity
  8
0
100
AcDbBlockEnd
  0
ENDSEC
  0
SECTION
  2
ENTITIES
  0
CIRCLE
  5
101528E
330
1F
100
AcDbEntity
  8
0
  6
Continuous
100
AcDbCircle
 10
597.4700946034645
 20
494.1253150772845
 30
0.0
 40
30.0
  0
LWPOLYLINE
  5
101528F
330
1F
100
AcDbEntity
  8
0
100
AcDbPolyline
 90
        6
 70
     0
 43
0.0
 10
497.4700946034645
 20
564.1253150772842
 10
497.4700946034645
 20
332.1253150772845
 10
870.4700946034641
 20
332.1253150772845
 10
870.4700946034641
 20
360.4095863247471
 10
666.7543658509262
 20
564.1253150772845
 10
497.4700946034645
 20
564.1253150772845
  0
DIMENSION
  5
1015290
330
1F
100
AcDbEntity
  8
quote
100
AcDbDimension
280
     0
  2
*D0
 10
622.5869157295447
 20
477.7196667657883
 30
0.0
 11
547.7340997225033
 21
526.6115614992961
 31
0.0
 70
   163
 71
     5
 42
60.00000000000039
 73
     0
 74
     0
 75
     0
  3
ISO-25
100
AcDbDiametricDimension
 15
572.3532734773841
 25
510.5309633887809
 35
0.0
 40
0.0
1001
ACAD_DSTYLE_DIMRADIAL_EXTENSION
1070
   387
1070
     1
1070
   388
1040
0.0
1070
   390
1040
0.0
1001
ACAD
1000
DSTYLE
1002
{
1070
    41
1040
4.0
1070
    42
1040
0.0625
1070
    43
1040
0.38
1070
    44
1040
0.18
1070
    50
1040
1.570796326794896
1070
    77
1070
     0
1070
   140
1040
6.0
1070
   141
1040
0.09
1070
   143
1040
25.4
1070
   147
1040
0.1
1070
   171
1070
     2
1070
   172
1070
     0
1070
   271
1070
     1
1070
   272
1070
     1
1070
   274
1070
     2
1070
   279
1070
     1
1070
   283
1070
     1
1070
   284
1070
     0
1002
}
  0
CIRCLE
  5
1015291
330
1F
100
AcDbEntity
  8
0
100
AcDbCircle
 10
582.1200946034646
 20
554.1253150772843
 30
0.0
 40
1.0
  0
CIRCLE
  5
1015292
330
1F
100
AcDbEntity
  8
0
100
AcDbCircle
 10
583.9700946034645
 20
342.1253150772845
 30
0.0
 40
1.0
  0
CIRCLE
  5
1015293
330
1F
100
AcDbEntity
  8
0
100
AcDbCircle
 10
683.9700946034645
 20
342.1253150772845
 30
0.0
 40
1.0
  0
CIRCLE
  5
1015294
330
1F
100
AcDbEntity
  8
0
100
AcDbCircle
 10
783.9700946034645
 20
342.1253150772845
 30
0.0
 40
1.0
  0
DIMENSION
  5
1015295
330
1F
100
AcDbEntity
  8
quote
100
AcDbDimension
280
     0
  2
*D1
 10
478.8589359988816
 20
332.1253150772847
 30
0.0
 11
478.8589359988815
 21
448.1253150772843
 31
0.0
 70
    32
 71
     5
 42
231.9999999999998
 73
     0
 74
     0
 75
     0
  3
ISO-25
100
AcDbAlignedDimension
 13
497.4700946034645
 23
564.1253150772842
 33
0.0
 14
497.4700946034645
 24
332.1253150772845
 34
0.0
 50
90.0
100
AcDbRotatedDimension
1001
ACAD
1000
DSTYLE
1002
{
1070
    41
1040
4.0
1070
    42
1040
0.0625
1070
    43
1040
0.38
1070
    44
1040
0.18
1070
    50
1040
1.570796326794896
1070
    77
1070
     0
1070
   140
1040
6.0
1070
   141
1040
0.09
1070
   143
1040
25.4
1070
   147
1040
0.1
1070
   171
1070
     2
1070
   172
1070
     0
1070
   271
1070
     1
1070
   272
1070
     1
1070
   274
1070
     2
1070
   279
1070
     1
1070
   283
1070
     1
1070
   284
1070
     0
1002
}
  0
DIMENSION
  5
1015296
330
1F
100
AcDbEntity
  8
quote
100
AcDbDimension
280
     0
  2
*D2
 10
870.4700946034641
 20
292.2045762593616
 30
0.0
 11
683.9700946034643
 21
292.2045762593616
 31
0.0
 70
    32
 71
     5
 42
372.9999999999995
 73
     0
 74
     0
 75
     0
  3
ISO-25
100
AcDbAlignedDimension
 13
497.4700946034645
 23
332.1253150772845
 33
0.0
 14
870.4700946034641
 24
332.1253150772845
 34
0.0
100
AcDbRotatedDimension
1001
ACAD
1000
DSTYLE
1002
{
1070
    41
1040
4.0
1070
    42
1040
0.0625
1070
    43
1040
0.38
1070
    44
1040
0.18
1070
    50
1040
1.570796326794896
1070
    77
1070
     0
1070
   140
1040
6.0
1070
   141
1040
0.09
1070
   143
1040
25.4
1070
   147
1040
0.1
1070
   171
1070
     2
1070
   172
1070
     0
1070
   271
1070
     1
1070
   272
1070
     1
1070
   274
1070
     2
1070
   279
1070
     1
1070
   283
1070
     1
1070
   284
1070
     0
1002
}
  0
DIMENSION
  5
1015297
330
1F
100
AcDbEntity
  8
quote
100
AcDbDimension
280
     0
  2
*D3
 10
497.4700946034645
 20
564.1253150772845
 30
0.0
 11
661.466919061103
 21
551.3602893269672
 31
0.0
 70
    34
 71
     5
 42
2.356194490192347
 73
     0
 74
     0
 75
     0
  3
ISO-25
100
AcDb2LineAngularDimension
 13
870.4700946034641
 23
360.4095863247471
 33
0.0
 14
666.7543658509262
 24
564.1253150772845
 34
0.0
 15
666.7543658509262
 25
564.1253150772845
 35
0.0
 16
656.9844381142056
 26
554.355387340564
 36
0.0
1001
ACAD
1000
DSTYLE
1002
{
1070
    41
1040
4.0
1070
    42
1040
0.0625
1070
    43
1040
0.38
1070
    44
1040
0.18
1070
    50
1040
1.570796326794896
1070
    77
1070
     0
1070
   140
1040
6.0
1070
   141
1040
0.09
1070
   143
1040
25.4
1070
   147
1040
0.1
1070
   171
1070
     2
1070
   172
1070
     0
1070
   271
1070
     1
1070
   272
1070
     1
1070
   274
1070
     2
1070
   279
1070
     1
1070
   283
1070
     1
1070
   284
1070
     0
1002
}
  0
LINE
  5
1015298
330
1F
100
AcDbEntity
  8
quote
100
AcDbLine
 10
870.4700946034641
 20
332.1253150772845
 30
0.0
 11
870.4700946034641
 21
360.4095863247471
 31
0.0
  0
DIMENSION
  5
1015299
330
1F
100
AcDbEntity
  8
quote
100
AcDbDimension
280
     0
  2
*D4
 10
884.8990952964671
 20
360.4095863247473
 30
0.0
 11
884.8990952964669
 21
346.2674507010157
 31
0.0
 70
    32
 71
     5
 42
28.28427124746259
 73
     0
 74
     0
 75
     0
  3
ISO-25
100
AcDbAlignedDimension
 13
870.4700946034641
 23
332.1253150772845
 33
0.0
 14
870.4700946034641
 24
360.4095863247471
 34
0.0
 50
90.0
100
AcDbRotatedDimension
1001
ACAD
1000
DSTYLE
1002
{
1070
    41
1040
4.0
1070
    42
1040
0.0625
1070
    43
1040
0.38
1070
    44
1040
0.18
1070
    50
1040
1.570796326794896
1070
    77
1070
     0
1070
   140
1040
6.0
1070
   141
1040
0.09
1070
   143
1040
25.4
1070
   147
1040
0.1
1070
   171
1070
     2
1070
   172
1070
     0
1070
   271
1070
     1
1070
   272
1070
     1
1070
   274
1070
     2
1070
   279
1070
     1
1070
   283
1070
     1
1070
   284
1070
     0
1002
}
  0
DIMENSION
  5
101529A
330
1F
100
AcDbEntity
  8
quote
100
AcDbDimension
280
     0
  2
*D5
 10
666.7543658509262
 20
564.1253150772845
 30
0.0
 11
857.0765685884234
 21
354.8618062013204
 31
0.0
 70
    34
 71
     5
 42
2.356194490192345
 73
     0
 74
     0
 75
     0
  3
ISO-25
100
AcDb2LineAngularDimension
 13
870.4700946034641
 23
332.1253150772845
 33
0.0
 14
870.4700946034641
 24
360.4095863247471
 34
0.0
 15
870.4700946034641
 25
360.4095863247471
 35
0.0
 16
855.973046510371
 26
360.409586324747
 36
0.0
1001
ACAD
1000
DSTYLE
1002
{
1070
    41
1040
4.0
1070
    42
1040
0.0625
1070
    43
1040
0.38
1070
    44
1040
0.18
1070
    50
1040
1.570796326794896
1070
    77
1070
     0
1070
   140
1040
6.0
1070
   141
1040
0.09
1070
   143
1040
25.4
1070
   147
1040
0.1
1070
   171
1070
     2
1070
   172
1070
     0
1070
   271
1070
     1
1070
   272
1070
     1
1070
   274
1070
     2
1070
   279
1070
     1
1070
   283
1070
     1
1070
   284
1070
     0
1002
}
  0
DIMENSION
  5
101529B
330
1F
100
AcDbEntity
  8
quote
100
AcDbDimension
280
     0
  2
*D6
 10
497.4700946034645
 20
494.1253150772845
 30
0.0
 11
532.4700946034645
 21
494.1253150772845
 31
0.0
 70
    32
 71
     5
 42
70.0
 73
     0
 74
     0
 75
     0
  3
ISO-25
100
AcDbAlignedDimension
 13
567.4700946034645
 23
494.1253150772845
 33
0.0
 14
497.4700946034645
 24
494.1253150772845
 34
0.0
100
AcDbRotatedDimension
1001
ACAD
1000
DSTYLE
1002
{
1070
    41
1040
4.0
1070
    42
1040
0.0625
1070
    43
1040
0.38
1070
    44
1040
0.18
1070
    50
1040
1.570796326794896
1070
    77
1070
     0
1070
   140
1040
6.0
1070
   141
1040
0.09
1070
   143
1040
25.4
1070
   147
1040
0.1
1070
   171
1070
     2
1070
   172
1070
     0
1070
   271
1070
     1
1070
   272
1070
     1
1070
   274
1070
     2
1070
   279
1070
     1
1070
   283
1070
     1
1070
   284
1070
     0
1002
}
  0
DIMENSION
  5
101529C
330
1F
100
AcDbEntity
  8
quote
100
AcDbDimension
280
     0
  2
*D7
 10
597.470094603469
 20
564.1253150772847
 30
0.0
 11
597.470094603469
 21
544.1253150772845
 31
0.0
 70
    32
 71
     5
 42
40.0
 73
     0
 74
     0
 75
     0
  3
ISO-25
100
AcDbAlignedDimension
 13
597.4700946034645
 23
524.1253150772845
 33
0.0
 14
597.4700946034645
 24
564.1253150772845
 34
0.0
 50
90.0
100
AcDbRotatedDimension
1001
ACAD
1000
DSTYLE
1002
{
1070
    41
1040
4.0
1070
    42
1040
0.0625
1070
    43
1040
0.38
1070
    44
1040
0.18
1070
    50
1040
1.570796326794896
1070
    77
1070
     0
1070
   140
1040
6.0
1070
   141
1040
0.09
1070
   143
1040
25.4
1070
   147
1040
0.1
1070
   171
1070
     2
1070
   172
1070
     0
1070
   271
1070
     1
1070
   272
1070
     1
1070
   274
1070
     2
1070
   279
1070
     1
1070
   283
1070
     1
1070
   284
1070
     0
1002
}
  0
DIMENSION
  5
101529D
330
1F
100
AcDbEntity
  8
quote
100
AcDbDimension
280
     0
  2
*D8
 10
575.1980086571252
 20
554.1253150772845
 30
0.0
 11
569.8980086571191
 21
566.8270826815778
 31
0.0
 70
   160
 71
     5
 42
10.00000000000023
 73
     0
 74
     0
 75
     0
  3
ISO-25
100
AcDbAlignedDimension
 13
582.1122302271955
 23
564.1253150772845
 33
0.0
 14
582.1200946034646
 24
554.1253150772843
 34
0.0
 50
90.0
100
AcDbRotatedDimension
1001
ACAD
1000
DSTYLE
1002
{
1070
    41
1040
4.0
1070
    42
1040
0.0625
1070
    43
1040
0.38
1070
    44
1040
0.18
1070
    50
1040
1.570796326794896
1070
    77
1070
     0
1070
   140
1040
6.0
1070
   141
1040
0.09
1070
   143
1040
25.4
1070
   147
1040
0.1
1070
   171
1070
     2
1070
   172
1070
     0
1070
   271
1070
     1
1070
   272
1070
     1
1070
   274
1070
     2
1070
   279
1070
     1
1070
   283
1070
     1
1070
   284
1070
     0
1002
}
  0
DIMENSION
  5
101529E
330
1F
100
AcDbEntity
  8
quote
100
AcDbDimension
280
     0
  2
*D9
 10
583.1047532789678
 20
341.6241320846394
 30
0.0
 11
596.1714072788772
 21
349.1919952735873
 31
0.0
 70
    35
 71
     5
 42
1.999999999999431
 73
     0
 74
     0
 75
     0
  3
ISO-25
100
AcDbDiametricDimension
 15
584.8354359279619
 25
342.6264980699302
 35
0.0
 40
0.0
1001
ACAD_DSTYLE_DIMRADIAL_EXTENSION
1070
   387
1070
     1
1070
   388
1040
0.0
1070
   390
1040
0.0
1001
ACAD
1000
DSTYLE
1002
{
1070
    41
1040
4.0
1070
    42
1040
0.0625
1070
    43
1040
0.38
1070
    44
1040
0.18
1070
    50
1040
1.570796326794896
1070
    77
1070
     0
1070
   140
1040
6.0
1070
   141
1040
0.09
1070
   143
1040
25.4
1070
   147
1040
0.1
1070
   171
1070
     2
1070
   172
1070
     0
1070
   271
1070
     1
1070
   272
1070
     1
1070
   274
1070
     2
1070
   279
1070
     1
1070
   283
1070
     1
1070
   284
1070
     0
1002
}
  0
DIMENSION
  5
101529F
330
1F
100
AcDbEntity
  8
quote
100
AcDbDimension
280
     0
  2
*D10
 10
570.6590721802672
 20
332.1253150772847
 30
0.0
 11
562.594404094967
 21
341.7153150772833
 31
0.0
 70
   160
 71
     5
 42
9.999999999999317
 73
     0
 74
     0
 75
     0
  3
ISO-25
100
AcDbAlignedDimension
 13
574.5330967671057
 23
342.1253150772839
 33
0.0
 14
570.6590721802604
 24
332.1253150772845
 34
0.0
 50
90.0
100
AcDbRotatedDimension
1001
ACAD
1000
DSTYLE
1002
{
1070
    41
1040
4.0
1070
    42
1040
0.0625
1070
    43
1040
0.38
1070
    44
1040
0.18
1070
    50
1040
1.570796326794896
1070
    77
1070
     0
1070
   140
1040
6.0
1070
   141
1040
0.09
1070
   143
1040
25.4
1070
   147
1040
0.1
1070
   171
1070
     2
1070
   172
1070
     0
1070
   271
1070
     1
1070
   272
1070
     1
1070
   274
1070
     2
1070
   279
1070
     1
1070
   283
1070
     1
1070
   284
1070
     0
1002
}
  0
DIMENSION
  5
10152A0
330
1F
100
AcDbEntity
  8
quote
100
AcDbDimension
280
     0
  2
*D11
 10
583.9700946034645
 20
312.1961014299988
 30
0.0
 11
540.7200946034645
 21
312.1961014299988
 31
0.0
 70
    32
 71
     5
 42
86.5
 73
     0
 74
     0
 75
     0
  3
ISO-25
100
AcDbAlignedDimension
 13
497.4700946034645
 23
332.1253150772845
 33
0.0
 14
583.9700946034645
 24
332.1253150772845
 34
0.0
100
AcDbRotatedDimension
1001
ACAD
1000
DSTYLE
1002
{
1070
    41
1040
4.0
1070
    42
1040
0.0625
1070
    43
1040
0.38
1070
    44
1040
0.18
1070
    50
1040
1.570796326794896
1070
    77
1070
     0
1070
   140
1040
6.0
1070
   141
1040
0.09
1070
   143
1040
25.4
1070
   147
1040
0.1
1070
   171
1070
     2
1070
   172
1070
     0
1070
   271
1070
     1
1070
   272
1070
     1
1070
   274
1070
     2
1070
   279
1070
     1
1070
   283
1070
     1
1070
   284
1070
     0
1002
}
  0
DIMENSION
  5
10152A1
330
1F
100
AcDbEntity
  8
quote
100
AcDbDimension
280
     0
  2
*D12
 10
683.9700946034645
 20
312.3761014299989
 30
0.0
 11
633.9700946034645
 21
312.3761014299989
 31
0.0
 70
    32
 71
     5
 42
100.0
 73
     0
 74
     0
 75
     0
  3
ISO-25
100
AcDbAlignedDimension
 13
583.9700946034645
 23
319.9781877767102
 33
0.0
 14
683.9700946034645
 24
332.1253150772845
 34
0.0
100
AcDbRotatedDimension
1001
ACAD
1000
DSTYLE
1002
{
1070
    41
1040
4.0
1070
    42
1040
0.0625
1070
    43
1040
0.38
1070
    44
1040
0.18
1070
    50
1040
1.570796326794896
1070
    77
1070
     0
1070
   140
1040
6.0
1070
   141
1040
0.09
1070
   143
1040
25.4
1070
   147
1040
0.1
1070
   171
1070
     2
1070
   172
1070
     0
1070
   271
1070
     1
1070
   272
1070
     1
1070
   274
1070
     2
1070
   279
1070
     1
1070
   283
1070
     1
1070
   284
1070
     0
1002
}
  0
DIMENSION
  5
10152A2
330
1F
100
AcDbEntity
  8
quote
100
AcDbDimension
280
     0
  2
*D13
 10
783.9700946034645
 20
312.3761014299989
 30
0.0
 11
733.9700946034645
 21
312.3761014299989
 31
0.0
 70
    32
 71
     5
 42
100.0
 73
     0
 74
     0
 75
     0
  3
ISO-25
100
AcDbAlignedDimension
 13
683.9700946034645
 23
319.9781877767102
 33
0.0
 14
783.9700946034645
 24
332.1253150772845
 34
0.0
100
AcDbRotatedDimension
1001
ACAD
1000
DSTYLE
1002
{
1070
    41
1040
4.0
1070
    42
1040
0.0625
1070
    43
1040
0.38
1070
    44
1040
0.18
1070
    50
1040
1.570796326794896
1070
    77
1070
     0
1070
   140
1040
6.0
1070
   141
1040
0.09
1070
   143
1040
25.4
1070
   147
1040
0.1
1070
   171
1070
     2
1070
   172
1070
     0
1070
   271
1070
     1
1070
   272
1070
     1
1070
   274
1070
     2
1070
   279
1070
     1
1070
   283
1070
     1
1070
   284
1070
     0
1002
}
  0
CIRCLE
  5
10152A4
330
1F
100
AcDbEntity
  8
0
100
AcDbCircle
 10
1050.176314251335
 20
554.1253150772845
 30
0.0
 40
1.0
  0
CIRCLE
  5
10152A5
330
1F
100
AcDbEntity
  8
0
100
AcDbCircle
 10
1163.176314251335
 20
554.1253150772845
 30
0.0
 40
1.0
  0
CIRCLE
  5
10152A6
330
1F
100
AcDbEntity
  8
0
100
AcDbCircle
 10
1163.176314251335
 20
483.1253150772845
 30
0.0
 40
1.0
  0
CIRCLE
  5
10152A7
330
1F
100
AcDbEntity
  8
0
100
AcDbCircle
 10
1163.176314251335
 20
413.1253150772843
 30
0.0
 40
1.0
  0
CIRCLE
  5
10152A8
330
1F
100
AcDbEntity
  8
0
100
AcDbCircle
 10
1085.607020315403
 20
342.1083238793399
 30
0.0
 40
1.0
  0
CIRCLE
  5
10152A9
330
1F
100
AcDbEntity
  8
0
100
AcDbCircle
 10
810.1333263386186
 20
540.0261673662694
 30
0.0
 40
1.0
  0
CIRCLE
  5
10152AA
330
1F
100
AcDbEntity
  8
0
100
AcDbCircle
 10
909.0822171742029
 20
441.0772765306851
 30
0.0
 40
1.0
  0
CIRCLE
  5
10152AB
330
1F
100
AcDbEntity
  8
0
100
AcDbCircle
 10
937.1763142513355
 20
554.1253150772845
 30
0.0
 40
1.0
  0
CIRCLE
  5
10152AC
330
1F
100
AcDbEntity
  8
0
100
AcDbCircle
 10
1163.176314251335
 20
342.1253150772845
 30
0.0
 40
1.0
  0
CIRCLE
  5
10152AD
330
1F
100
AcDbEntity
  8
0
100
AcDbCircle
 10
1008.057020315403
 20
342.1083238793399
 30
0.0
 40
1.0
  0
CIRCLE
  5
10152AE
330
1F
100
AcDbEntity
  8
0
100
AcDbCircle
 10
824.1773430787061
 20
554.1253150772847
 30
0.0
 40
1.0
  0
DIMENSION
  5
10152AF
330
1F
100
AcDbEntity
  8
quote
100
AcDbDimension
280
     0
  2
*D14
 10
937.1763142513355
 20
581.037115524057
 30
0.0
 11
880.6768286650209
 21
581.037115524057
 31
0.0
 70
    32
 71
     5
 42
112.9989711726293
 73
     0
 74
     0
 75
     0
  3
ISO-25
100
AcDbAlignedDimension
 13
824.1773430787061
 23
564.1240802790453
 33
0.0
 14
937.1763142513355
 24
564.1182667394827
 34
0.0
100
AcDbRotatedDimension
1001
ACAD
1000
DSTYLE
1002
{
1070
    41
1040
4.0
1070
    42
1040
0.0625
1070
    43
1040
0.38
1070
    44
1040
0.18
1070
    50
1040
1.570796326794896
1070
    77
1070
     0
1070
   140
1040
6.0
1070
   141
1040
0.09
1070
   143
1040
25.4
1070
   147
1040
0.1
1070
   171
1070
     2
1070
   172
1070
     0
1070
   271
1070
     1
1070
   272
1070
     1
1070
   274
1070
     2
1070
   279
1070
     1
1070
   283
1070
     1
1070
   284
1070
     0
1002
}
  0
DIMENSION
  5
10152B0
330
1F
100
AcDbEntity
  8
quote
100
AcDbDimension
280
     0
  2
*D15
 10
1050.176314251335
 20
581.037115524057
 30
0.0
 11
993.6763142513354
 21
581.037115524057
 31
0.0
 70
    32
 71
     5
 42
113.0
 73
     0
 74
     0
 75
     0
  3
ISO-25
100
AcDbAlignedDimension
 13
937.1763142513355
 23
564.1182667394827
 33
0.0
 14
1050.176314251335
 24
564.1124531469895
 34
0.0
100
AcDbRotatedDimension
1001
ACAD
1000
DSTYLE
1002
{
1070
    41
1040
4.0
1070
    42
1040
0.0625
1070
    43
1040
0.38
1070
    44
1040
0.18
1070
    50
1040
1.570796326794896
1070
    77
1070
     0
1070
   140
1040
6.0
1070
   141
1040
0.09
1070
   143
1040
25.4
1070
   147
1040
0.1
1070
   171
1070
     2
1070
   172
1070
     0
1070
   271
1070
     1
1070
   272
1070
     1
1070
   274
1070
     2
1070
   279
1070
     1
1070
   283
1070
     1
1070
   284
1070
     0
1002
}
  0
DIMENSION
  5
10152B1
330
1F
100
AcDbEntity
  8
quote
100
AcDbDimension
280
     0
  2
*D16
 10
1163.176314251335
 20
581.037115524057
 30
0.0
 11
1106.676314251335
 21
581.037115524057
 31
0.0
 70
    32
 71
     5
 42
113.0
 73
     0
 74
     0
 75
     0
  3
ISO-25
100
AcDbAlignedDimension
 13
1050.176314251335
 23
564.1124531469895
 33
0.0
 14
1163.176314251335
 24
564.106639554496
 34
0.0
100
AcDbRotatedDimension
1001
ACAD
1000
DSTYLE
1002
{
1070
    41
1040
4.0
1070
    42
1040
0.0625
1070
    43
1040
0.38
1070
    44
1040
0.18
1070
    50
1040
1.570796326794896
1070
    77
1070
     0
1070
   140
1040
6.0
1070
   141
1040
0.09
1070
   143
1040
25.4
1070
   147
1040
0.1
1070
   171
1070
     2
1070
   172
1070
     0
1070
   271
1070
     1
1070
   272
1070
     1
1070
   274
1070
     2
1070
   279
1070
     1
1070
   283
1070
     1
1070
   284
1070
     0
1002
}
  0
DIMENSION
  5
10152B2
330
1F
100
AcDbEntity
  8
quote
100
AcDbDimension
280
     0
  2
*D17
 10
800.1763142513354
 20
581.037115524057
 30
0.0
 11
812.1768286650208
 21
581.037115524057
 31
0.0
 70
    32
 71
     5
 42
24.00102882737065
 73
     0
 74
     0
 75
     0
  3
ISO-25
100
AcDbAlignedDimension
 13
824.1773430787061
 23
564.1240802790453
 33
0.0
 14
800.1763142513354
 24
564.1253150772845
 34
0.0
100
AcDbRotatedDimension
1001
ACAD
1000
DSTYLE
1002
{
1070
    41
1040
4.0
1070
    42
1040
0.0625
1070
    43
1040
0.38
1070
    44
1040
0.18
1070
    50
1040
1.570796326794896
1070
    77
1070
     0
1070
   140
1040
6.0
1070
   141
1040
0.09
1070
   143
1040
25.4
1070
   147
1040
0.1
1070
   171
1070
     2
1070
   172
1070
     0
1070
   271
1070
     1
1070
   272
1070
     1
1070
   274
1070
     2
1070
   279
1070
     1
1070
   283
1070
     1
1070
   284
1070
     0
1002
}
  0
DIMENSION
  5
10152B3
330
1F
100
AcDbEntity
  8
quote
100
AcDbDimension
280
     0
  2
*D18
 10
1173.176314251335
 20
581.037115524057
 30
0.0
 11
1175.793706095802
 21
586.337115524057
 31
0.0
 70
   160
 71
     5
 42
9.999999999999545
 73
     0
 74
     0
 75
     0
  3
ISO-25
100
AcDbAlignedDimension
 13
1163.176314251335
 23
564.106639554496
 33
0.0
 14
1173.176314251335
 24
564.1061250772843
 34
0.0
100
AcDbRotatedDimension
1001
ACAD
1000
DSTYLE
1002
{
1070
    41
1040
4.0
1070
    42
1040
0.0625
1070
    43
1040
0.38
1070
    44
1040
0.18
1070
    50
1040
1.570796326794896
1070
    77
1070
     0
1070
   140
1040
6.0
1070
   141
1040
0.09
1070
   143
1040
25.4
1070
   147
1040
0.1
1070
   171
1070
     2
1070
   172
1070
     0
1070
   271
1070
     1
1070
   272
1070
     1
1070
   274
1070
     2
1070
   279
1070
     1
1070
   283
1070
     1
1070
   284
1070
     0
1002
}
  0
DIMENSION
  5
10152B5
330
1F
100
AcDbEntity
  8
quote
100
AcDbDimension
280
     0
  2
*D19
 10
1173.178259098644
 20
601.9085245779019
 30
0.0
 11
986.6782590986446
 21
601.9181195779021
 31
0.0
 70
    33
 71
     5
 42
373.0000004936405
 73
     0
 74
     0
 75
     0
  3
ISO-25
100
AcDbAlignedDimension
 13
800.1763142513354
 23
564.1253150772845
 33
0.0
 14
1173.176314251335
 24
564.1061250772843
 34
0.0
1001
ACAD
1000
DSTYLE
1002
{
1070
    41
1040
4.0
1070
    42
1040
0.0625
1070
    43
1040
0.38
1070
    44
1040
0.18
1070
    50
1040
1.570796326794896
1070
    77
1070
     0
1070
   140
1040
6.0
1070
   141
1040
0.09
1070
   143
1040
25.4
1070
   147
1040
0.1
1070
   171
1070
     2
1070
   172
1070
     0
1070
   271
1070
     1
1070
   272
1070
     1
1070
   274
1070
     2
1070
   279
1070
     1
1070
   283
1070
     1
1070
   284
1070
     0
1002
}
  0
DIMENSION
  5
10152B6
330
1F
100
AcDbEntity
  8
quote
100
AcDbDimension
280
     0
  2
*D20
 10
1187.055795365956
 20
483.1253150772845
 30
0.0
 11
1187.055795365956
 21
518.6253150772841
 31
0.0
 70
    32
 71
     5
 42
71.00000000000005
 73
     0
 74
     0
 75
     0
  3
ISO-25
100
AcDbAlignedDimension
 13
1173.176314251335
 23
554.1253150772843
 33
0.0
 14
1173.176314251335
 24
483.1253150772843
 34
0.0
 50
90.0
100
AcDbRotatedDimension
1001
ACAD
1000
DSTYLE
1002
{
1070
    41
1040
4.0
1070
    42
1040
0.0625
1070
    43
1040
0.38
1070
    44
1040
0.18
1070
    50
1040
1.570796326794896
1070
    77
1070
     0
1070
   140
1040
6.0
1070
   141
1040
0.09
1070
   143
1040
25.4
1070
   147
1040
0.1
1070
   171
1070
     2
1070
   172
1070
     0
1070
   271
1070
     1
1070
   272
1070
     1
1070
   274
1070
     2
1070
   279
1070
     1
1070
   283
1070
     1
1070
   284
1070
     0
1002
}
  0
DIMENSION
  5
10152B7
330
1F
100
AcDbEntity
  8
quote
100
AcDbDimension
280
     0
  2
*D21
 10
1187.055795365958
 20
413.1253150772843
 30
0.0
 11
1187.055795365958
 21
448.125315077284
 31
0.0
 70
    32
 71
     5
 42
70.00000000000023
 73
     0
 74
     0
 75
     0
  3
ISO-25
100
AcDbAlignedDimension
 13
1173.176314251335
 23
483.1253150772843
 33
0.0
 14
1173.176314251335
 24
413.125315077284
 34
0.0
 50
90.0
100
AcDbRotatedDimension
1001
ACAD
1000
DSTYLE
1002
{
1070
    41
1040
4.0
1070
    42
1040
0.0625
1070
    43
1040
0.38
1070
    44
1040
0.18
1070
    50
1040
1.570796326794896
1070
    77
1070
     0
1070
   140
1040
6.0
1070
   141
1040
0.09
1070
   143
1040
25.4
1070
   147
1040
0.1
1070
   171
1070
     2
1070
   172
1070
     0
1070
   271
1070
     1
1070
   272
1070
     1
1070
   274
1070
     2
1070
   279
1070
     1
1070
   283
1070
     1
1070
   284
1070
     0
1002
}
  0
DIMENSION
  5
10152B8
330
1F
100
AcDbEntity
  8
quote
100
AcDbDimension
280
     0
  2
*D22
 10
1187.055795365959
 20
342.1253150772842
 30
0.0
 11
1187.055795365959
 21
377.6253150772838
 31
0.0
 70
    32
 71
     5
 42
71.00000000000005
 73
     0
 74
     0
 75
     0
  3
ISO-25
100
AcDbAlignedDimension
 13
1173.176314251335
 23
413.125315077284
 33
0.0
 14
1173.176314251335
 24
342.1253150772841
 34
0.0
 50
90.0
100
AcDbRotatedDimension
1001
ACAD
1000
DSTYLE
1002
{
1070
    41
1040
4.0
1070
    42
1040
0.0625
1070
    43
1040
0.38
1070
    44
1040
0.18
1070
    50
1040
1.570796326794896
1070
    77
1070
     0
1070
   140
1040
6.0
1070
   141
1040
0.09
1070
   143
1040
25.4
1070
   147
1040
0.1
1070
   171
1070
     2
1070
   172
1070
     0
1070
   271
1070
     1
1070
   272
1070
     1
1070
   274
1070
     2
1070
   279
1070
     1
1070
   283
1070
     1
1070
   284
1070
     0
1002
}
  0
DIMENSION
  5
10152BA
330
1F
100
AcDbEntity
  8
quote
100
AcDbDimension
280
     0
  2
*D23
 10
1085.607020315403
 20
312.7094347633322
 30
0.0
 11
1046.832020315403
 21
312.7094347633322
 31
0.0
 70
    32
 71
     5
 42
77.54999999999973
 73
     0
 74
     0
 75
     0
  3
ISO-25
100
AcDbAlignedDimension
 13
1008.057020315403
 23
332.1253150772845
 33
0.0
 14
1085.607020315403
 24
332.1253150772845
 34
0.0
100
AcDbRotatedDimension
1001
ACAD
1000
DSTYLE
1002
{
1070
    41
1040
4.0
1070
    42
1040
0.0625
1070
    43
1040
0.38
1070
    44
1040
0.18
1070
    50
1040
1.570796326794896
1070
    77
1070
     0
1070
   140
1040
6.0
1070
   141
1040
0.09
1070
   143
1040
25.4
1070
   147
1040
0.1
1070
   171
1070
     2
1070
   172
1070
     0
1070
   271
1070
     1
1070
   272
1070
     1
1070
   274
1070
     2
1070
   279
1070
     1
1070
   283
1070
     1
1070
   284
1070
     0
1002
}
  0
DIMENSION
  5
10152BB
330
1F
100
AcDbEntity
  8
quote
100
AcDbDimension
280
     0
  2
*D24
 10
1163.176314251335
 20
312.7094347633322
 30
0.0
 11
1124.391667283369
 21
312.7094347633322
 31
0.0
 70
    32
 71
     5
 42
77.56929393593281
 73
     0
 74
     0
 75
     0
  3
ISO-25
100
AcDbAlignedDimension
 13
1085.607020315403
 23
332.1253150772845
 33
0.0
 14
1163.176314251335
 24
332.1253150772845
 34
0.0
100
AcDbRotatedDimension
1001
ACAD
1000
DSTYLE
1002
{
1070
    41
1040
4.0
1070
    42
1040
0.0625
1070
    43
1040
0.38
1070
    44
1040
0.18
1070
    50
1040
1.570796326794896
1070
    77
1070
     0
1070
   140
1040
6.0
1070
   141
1040
0.09
1070
   143
1040
25.4
1070
   147
1040
0.1
1070
   171
1070
     2
1070
   172
1070
     0
1070
   271
1070
     1
1070
   272
1070
     1
1070
   274
1070
     2
1070
   279
1070
     1
1070
   283
1070
     1
1070
   284
1070
     0
1002
}
  0
DIMENSION
  5
10152BD
330
1F
100
AcDbEntity
  8
quote
100
AcDbDimension
280
     0
  2
*D25
 10
892.0334863961642
 20
424.0285457526464
 30
0.0
 11
842.5590409783721
 21
473.5029911704386
 31
0.0
 70
    33
 71
     5
 42
139.9348634014581
 73
     0
 74
     0
 75
     0
  3
ISO-25
100
AcDbAlignedDimension
 13
810.1333263386186
 23
540.0261673662694
 33
0.0
 14
909.0822171742029
 24
441.0772765306851
 34
0.0
1001
ACAD
1000
DSTYLE
1002
{
1070
    41
1040
4.0
1070
    42
1040
0.0625
1070
    43
1040
0.38
1070
    44
1040
0.18
1070
    50
1040
1.570796326794896
1070
    77
1070
     0
1070
   140
1040
6.0
1070
   141
1040
0.09
1070
   143
1040
25.4
1070
   147
1040
0.1
1070
   171
1070
     2
1070
   172
1070
     0
1070
   271
1070
     1
1070
   272
1070
     1
1070
   274
1070
     2
1070
   279
1070
     1
1070
   283
1070
     1
1070
   284
1070
     0
1002
}
  0
DIMENSION
  5
10152BE
330
1F
100
AcDbEntity
  8
quote
100
AcDbDimension
280
     0
  2
*D26
 10
991.0087934500737
 20
325.0590892183774
 30
0.0
 11
941.5213918794737
 21
374.54356554405
 31
0.0
 70
    33
 71
     5
 42
139.9673720755787
 73
     0
 74
     0
 75
     0
  3
ISO-25
100
AcDbAlignedDimension
 13
909.0822171742029
 23
441.0772765306851
 33
0.0
 14
1008.057020315403
 24
342.1083238793399
 34
0.0
1001
ACAD
1000
DSTYLE
1002
{
1070
    41
1040
4.0
1070
    42
1040
0.0625
1070
    43
1040
0.38
1070
    44
1040
0.18
1070
    50
1040
1.570796326794896
1070
    77
1070
     0
1070
   140
1040
6.0
1070
   141
1040
0.09
1070
   143
1040
25.4
1070
   147
1040
0.1
1070
   171
1070
     2
1070
   172
1070
     0
1070
   271
1070
     1
1070
   272
1070
     1
1070
   274
1070
     2
1070
   279
1070
     1
1070
   283
1070
     1
1070
   284
1070
     0
1002
}
  0
DIMENSION
  5
10152BF
330
1F
100
AcDbEntity
  8
quote
100
AcDbDimension
280
     0
  2
*D27
 10
810.1333263386186
 20
540.0261673662695
 30
0.0
 11
818.9190708243318
 21
534.1837357541517
 31
0.0
 70
   161
 71
     5
 42
10.0
 73
     0
 74
     0
 75
     0
  3
ISO-25
100
AcDbAlignedDimension
 13
803.0622585267529
 23
532.9550995544041
 33
0.0
 14
810.1333263386186
 24
540.0261673662694
 34
0.0
1001
ACAD
1000
DSTYLE
1002
{
1070
    41
1040
4.0
1070
    42
1040
0.0625
1070
    43
1040
0.38
1070
    44
1040
0.18
1070
    50
1040
1.570796326794896
1070
    77
1070
     0
1070
   140
1040
6.0
1070
   141
1040
0.09
1070
   143
1040
25.4
1070
   147
1040
0.1
1070
   171
1070
     2
1070
   172
1070
     0
1070
   271
1070
     1
1070
   272
1070
     1
1070
   274
1070
     2
1070
   279
1070
     1
1070
   283
1070
     1
1070
   284
1070
     0
1002
}
  0
DIMENSION
  5
10152C0
330
1F
100
AcDbEntity
  8
quote
100
AcDbDimension
280
     0
  2
*D28
 10
823.2503612721384
 20
554.500421369277
 30
0.0
 11
837.2477865513138
 21
548.8363163601936
 31
0.0
 70
    35
 71
     5
 42
2.000000000000682
 73
     0
 74
     0
 75
     0
  3
ISO-25
100
AcDbDiametricDimension
 15
825.1043248852747
 25
553.7502087852923
 35
0.0
 40
0.0
1001
ACAD_DSTYLE_DIMRADIAL_EXTENSION
1070
   387
1070
     1
1070
   388
1040
0.0
1070
   390
1040
0.0
1001
ACAD
1000
DSTYLE
1002
{
1070
    41
1040
4.0
1070
    42
1040
0.0625
1070
    43
1040
0.38
1070
    44
1040
0.18
1070
    50
1040
1.570796326794896
1070
    77
1070
     0
1070
   140
1040
6.0
1070
   141
1040
0.09
1070
   143
1040
25.4
1070
   147
1040
0.1
1070
   171
1070
     2
1070
   172
1070
     0
1070
   271
1070
     1
1070
   272
1070
     1
1070
   274
1070
     2
1070
   279
1070
     1
1070
   283
1070
     1
1070
   284
1070
     0
1002
}
  0
DIMENSION
  5
10152C1
330
1F
100
AcDbEntity
  8
quote
100
AcDbDimension
280
     0
  2
*D29
 10
497.4700946034645
 20
581.2171155240571
 30
0.0
 11
539.7950946034645
 21
581.2171155240571
 31
0.0
 70
    32
 71
     5
 42
84.65000000000008
 73
     0
 74
     0
 75
     0
  3
ISO-25
100
AcDbAlignedDimension
 13
582.1200946034646
 23
554.1253150772843
 33
0.0
 14
497.4700946034645
 24
564.1253150772845
 34
0.0
100
AcDbRotatedDimension
1001
ACAD
1000
DSTYLE
1002
{
1070
    41
1040
4.0
1070
    42
1040
0.0625
1070
    43
1040
0.38
1070
    44
1040
0.18
1070
    50
1040
1.570796326794896
1070
    77
1070
     0
1070
   140
1040
6.0
1070
   141
1040
0.09
1070
   143
1040
25.4
1070
   147
1040
0.1
1070
   171
1070
     2
1070
   172
1070
     0
1070
   271
1070
     1
1070
   272
1070
     1
1070
   274
1070
     2
1070
   279
1070
     1
1070
   283
1070
     1
1070
   284
1070
     0
1002
}
  0
DIMENSION
  5
10152C2
330
1F
100
AcDbEntity
  8
quote
100
AcDbDimension
280
     0
  2
*D30
 10
666.7543658509262
 20
581.2171155240571
 30
0.0
 11
624.4332980390609
 21
581.2171155240571
 31
0.0
 70
    32
 71
     5
 42
84.6421356237306
 73
     0
 74
     0
 75
     0
  3
ISO-25
100
AcDbAlignedDimension
 13
582.1122302271955
 23
564.1253150772845
 33
0.0
 14
666.7543658509262
 24
564.1253150772845
 34
0.0
100
AcDbRotatedDimension
1001
ACAD
1000
DSTYLE
1002
{
1070
    41
1040
4.0
1070
    42
1040
0.0625
1070
    43
1040
0.38
1070
    44
1040
0.18
1070
    50
1040
1.570796326794896
1070
    77
1070
     0
1070
   140
1040
6.0
1070
   141
1040
0.09
1070
   143
1040
25.4
1070
   147
1040
0.1
1070
   171
1070
     2
1070
   172
1070
     0
1070
   271
1070
     1
1070
   272
1070
     1
1070
   274
1070
     2
1070
   279
1070
     1
1070
   283
1070
     1
1070
   284
1070
     0
1002
}
  0
DIMENSION
  5
10152C3
330
1F
100
AcDbEntity
  8
quote
100
AcDbDimension
280
     0
  2
*D31
 10
666.7543658509262
 20
602.1077145776648
 30
0.0
 11
582.1122302271954
 21
602.1077145776648
 31
0.0
 70
    32
 71
     5
 42
169.2842712474616
 73
     0
 74
     0
 75
     0
  3
ISO-25
100
AcDbAlignedDimension
 13
497.4700946034645
 23
564.1253150772842
 33
0.0
 14
666.7543658509262
 24
564.1253150772845
 34
0.0
100
AcDbRotatedDimension
1001
ACAD
1000
DSTYLE
1002
{
1070
    41
1040
4.0
1070
    42
1040
0.0625
1070
    43
1040
0.38
1070
    44
1040
0.18
1070
    50
1040
1.570796326794896
1070
    77
1070
     0
1070
   140
1040
6.0
1070
   141
1040
0.09
1070
   143
1040
25.4
1070
   147
1040
0.1
1070
   171
1070
     2
1070
   172
1070
     0
1070
   271
1070
     1
1070
   272
1070
     1
1070
   274
1070
     2
1070
   279
1070
     1
1070
   283
1070
     1
1070
   284
1070
     0
1002
}
  0
MTEXT
  5
10152C4
330
1F
100
AcDbEntity
  8
testo
100
AcDbMText
 10
506.0053396576827
 20
640.645450891573
 30
0.0
 40
20.0
 41
20.0
 46
0.0
 71
     1
 72
     5
  1
{\fArial|b0|i0|c0|p34;A1}
 73
     1
 44
1.0
1001
ACAD
1000
ACAD_MTEXT_COLUMN_INFO_BEGIN
1070
    75
1070
     2
1070
    79
1070
     0
1070
    76
1070
     1
1070
    78
1070
     0
1070
    48
1040
20.0
1070
    49
1040
12.5
1070
    50
1070
     1
1040
0.0
1000
ACAD_MTEXT_COLUMN_INFO_END
  0
MTEXT
  5
10152C5
330
1F
100
AcDbEntity
  8
testo
100
AcDbMText
 10
862.9861214921888
 20
640.645450891573
 30
0.0
 40
20.0
 41
18.85353090520857
 46
0.0
 71
     1
 72
     5
  1
{\fArial|b0|i0|c0|p34;A2}
 73
     1
 44
1.0
1001
ACAD
1000
ACAD_MTEXT_COLUMN_INFO_BEGIN
1070
    75
1070
     2
1070
    79
1070
     0
1070
    76
1070
     1
1070
    78
1070
     0
1070
    48
1040
18.85353090520857
1070
    49
1040
12.5
1070
    50
1070
     1
1040
0.0
1000
ACAD_MTEXT_COLUMN_INFO_END
  0
DIMENSION
  5
10152C6
330
1F
100
AcDbEntity
  8
quote
100
AcDbDimension
280
     0
  2
*D32
 10
1173.176314251335
 20
312.7094347633322
 30
0.0
 11
1175.332163219881
 21
303.4094347633322
 31
0.0
 70
   160
 71
     5
 42
9.999999999999545
 73
     0
 74
     0
 75
     0
  3
ISO-25
100
AcDbAlignedDimension
 13
1163.176314251335
 23
332.1253150772845
 33
0.0
 14
1173.176314251335
 24
332.1253150772845
 34
0.0
100
AcDbRotatedDimension
1001
ACAD
1000
DSTYLE
1002
{
1070
    41
1040
4.0
1070
    42
1040
0.0625
1070
    43
1040
0.38
1070
    44
1040
0.18
1070
    50
1040
1.570796326794896
1070
    77
1070
     0
1070
   140
1040
6.0
1070
   141
1040
0.09
1070
   143
1040
25.4
1070
   147
1040
0.1
1070
   171
1070
     2
1070
   172
1070
     0
1070
   271
1070
     1
1070
   272
1070
     1
1070
   274
1070
     2
1070
   279
1070
     1
1070
   283
1070
     1
1070
   284
1070
     0
1002
}
  0
DIMENSION
  5
10152C7
330
1F
100
AcDbEntity
  8
quote
100
AcDbDimension
280
     0
  2
*D33
 10
1173.176314251335
 20
292.3845762593617
 30
0.0
 11
1088.534178627604
 21
292.3845762593617
 31
0.0
 70
    32
 71
     5
 42
169.2842712474626
 73
     0
 74
     0
 75
     0
  3
ISO-25
100
AcDbAlignedDimension
 13
1003.892043003872
 23
332.1253150772845
 33
0.0
 14
1173.176314251335
 24
332.1253150772845
 34
0.0
100
AcDbRotatedDimension
1001
ACAD
1000
DSTYLE
1002
{
1070
    41
1040
4.0
1070
    42
1040
0.0625
1070
    43
1040
0.38
1070
    44
1040
0.18
1070
    50
1040
1.570796326794896
1070
    77
1070
     0
1070
   140
1040
6.0
1070
   141
1040
0.09
1070
   143
1040
25.4
1070
   147
1040
0.1
1070
   171
1070
     2
1070
   172
1070
     0
1070
   271
1070
     1
1070
   272
1070
     1
1070
   274
1070
     2
1070
   279
1070
     1
1070
   283
1070
     1
1070
   284
1070
     0
1002
}
  0
DIMENSION
  5
10152C8
330
1F
100
AcDbEntity
  8
quote
100
AcDbDimension
280
     0
  2
*D34
 10
982.4181995169029
 20
310.651471590315
 30
0.0
 11
880.560335140634
 21
412.509335966584
 31
0.0
 70
    33
 71
     5
 42
288.0975464705579
 73
     0
 74
     0
 75
     0
  3
ISO-25
100
AcDbAlignedDimension
 13
800.1763142513345
 23
535.8410438298226
 33
0.0
 14
1003.892043003872
 24
332.1253150772845
 34
0.0
1001
ACAD
1000
DSTYLE
1002
{
1070
    41
1040
4.0
1070
    42
1040
0.0625
1070
    43
1040
0.38
1070
    44
1040
0.18
1070
    50
1040
1.570796326794896
1070
    77
1070
     0
1070
   140
1040
6.0
1070
   141
1040
0.09
1070
   143
1040
25.4
1070
   147
1040
0.1
1070
   171
1070
     2
1070
   172
1070
     0
1070
   271
1070
     1
1070
   272
1070
     1
1070
   274
1070
     2
1070
   279
1070
     1
1070
   283
1070
     1
1070
   284
1070
     0
1002
}
  0
DIMENSION
  5
10152C9
330
1F
100
AcDbEntity
  8
quote
100
AcDbDimension
280
     0
  2
*D35
 10
886.230639195891
 20
376.1701309171741
 30
0.0
 11
784.3727748196221
 21
478.0279952934429
 31
0.0
 70
    33
 71
     5
 42
288.0975464705573
 73
     0
 74
     0
 75
     0
  3
ISO-25
100
AcDbAlignedDimension
 13
666.7543658509262
 23
564.1253150772845
 33
0.0
 14
870.4700946034641
 24
360.4095863247471
 34
0.0
1001
ACAD
1000
DSTYLE
1002
{
1070
    41
1040
4.0
1070
    42
1040
0.0625
1070
    43
1040
0.38
1070
    44
1040
0.18
1070
    50
1040
1.570796326794896
1070
    77
1070
     0
1070
   140
1040
6.0
1070
   141
1040
0.09
1070
   143
1040
25.4
1070
   147
1040
0.1
1070
   171
1070
     2
1070
   172
1070
     0
1070
   271
1070
     1
1070
   272
1070
     1
1070
   274
1070
     2
1070
   279
1070
     1
1070
   283
1070
     1
1070
   284
1070
     0
1002
}
  0
DIMENSION
  5
10152CA
330
1F
100
AcDbEntity
  8
quote
100
AcDbDimension
280
     0
  2
*D36
 10
774.3523425840487
 20
535.8410438298228
 30
0.0
 11
774.3523425840485
 21
549.9831794535534
 31
0.0
 70
    32
 71
     5
 42
28.2842712474619
 73
     0
 74
     0
 75
     0
  3
ISO-25
100
AcDbAlignedDimension
 13
800.1763142513354
 23
564.1253150772845
 33
0.0
 14
800.1763142513345
 24
535.8410438298226
 34
0.0
 50
90.0
100
AcDbRotatedDimension
1001
ACAD
1000
DSTYLE
1002
{
1070
    41
1040
4.0
1070
    42
1040
0.0625
1070
    43
1040
0.38
1070
    44
1040
0.18
1070
    50
1040
1.570796326794896
1070
    77
1070
     0
1070
   140
1040
6.0
1070
   141
1040
0.09
1070
   143
1040
25.4
1070
   147
1040
0.1
1070
   171
1070
     2
1070
   172
1070
     0
1070
   271
1070
     1
1070
   272
1070
     1
1070
   274
1070
     2
1070
   279
1070
     1
1070
   283
1070
     1
1070
   284
1070
     0
1002
}
  0
DIMENSION
  5
10152CB
330
1F
100
AcDbEntity
  8
quote
100
AcDbDimension
280
     0
  2
*D37
 10
870.4700946034641
 20
312.3761014299989
 30
0.0
 11
827.2200946034642
 21
312.3761014299989
 31
0.0
 70
    32
 71
     5
 42
86.49999999999954
 73
     0
 74
     0
 75
     0
  3
ISO-25
100
AcDbAlignedDimension
 13
783.9700946034645
 23
332.1253150772845
 33
0.0
 14
870.4700946034641
 24
332.1253150772845
 34
0.0
100
AcDbRotatedDimension
1001
ACAD
1000
DSTYLE
1002
{
1070
    41
1040
4.0
1070
    42
1040
0.0625
1070
    43
1040
0.38
1070
    44
1040
0.18
1070
    50
1040
1.570796326794896
1070
    77
1070
     0
1070
   140
1040
6.0
1070
   141
1040
0.09
1070
   143
1040
25.4
1070
   147
1040
0.1
1070
   171
1070
     2
1070
   172
1070
     0
1070
   271
1070
     1
1070
   272
1070
     1
1070
   274
1070
     2
1070
   279
1070
     1
1070
   283
1070
     1
1070
   284
1070
     0
1002
}
  0
DIMENSION
  5
10152CC
330
1F
100
AcDbEntity
  8
quote
100
AcDbDimension
280
     0
  2
*D38
 10
1203.472661770427
 20
332.1061250772849
 30
0.0
 11
1203.472661770427
 21
448.1061250772843
 31
0.0
 70
    32
 71
     5
 42
231.9999999999997
 73
     0
 74
     0
 75
     0
  3
ISO-25
100
AcDbAlignedDimension
 13
1173.176314251335
 23
564.1061250772843
 33
0.0
 14
1173.176314246915
 24
332.1061250772848
 34
0.0
 50
90.0
100
AcDbRotatedDimension
1001
ACAD
1000
DSTYLE
1002
{
1070
    41
1040
4.0
1070
    42
1040
0.0625
1070
    43
1040
0.38
1070
    44
1040
0.18
1070
    50
1040
1.570796326794896
1070
    77
1070
     0
1070
   140
1040
6.0
1070
   141
1040
0.09
1070
   143
1040
25.4
1070
   147
1040
0.1
1070
   171
1070
     2
1070
   172
1070
     0
1070
   271
1070
     1
1070
   272
1070
     1
1070
   274
1070
     2
1070
   279
1070
     1
1070
   283
1070
     1
1070
   284
1070
     0
1002
}
  0
LINE
  5
1015863
330
1F
100
AcDbEntity
  8
quote
100
AcDbLine
 10
1173.176314251335
 20
564.1061250772843
 30
0.0
 11
1163.176314251335
 21
564.1061250772843
 31
0.0
  0
LINE
  5
1015864
330
1F
100
AcDbEntity
  8
quote
100
AcDbLine
 10
1163.176314251335
 20
564.1061250772843
 30
0.0
 11
1163.176314251335
 21
554.1061250772843
 31
0.0
  0
DIMENSION
  5
1015870
330
1F
100
AcDbEntity
  8
VITE
100
AcDbDimension
280
     0
  2
*D39
 10
1187.052597032624
 20
554.1061250772846
 30
0.0
 11
1196.382597032623
 21
566.1862069022715
 31
0.0
 70
   160
 71
     5
 42
10.0
 73
     0
 74
     0
 75
     0
  3
ISO-25
100
AcDbAlignedDimension
 13
1163.176314251335
 23
564.1061250772843
 33
0.0
 14
1163.176314251335
 24
554.1061250772843
 34
0.0
 50
90.0
100
AcDbRotatedDimension
1001
ACAD
1000
DSTYLE
1002
{
1070
    41
1040
4.0
1070
    42
1040
0.0625
1070
    43
1040
0.38
1070
    44
1040
0.18
1070
    50
1040
1.570796326794896
1070
    77
1070
     0
1070
   140
1040
6.0
1070
   141
1040
0.09
1070
   143
1040
25.4
1070
   147
1040
0.1
1070
   171
1070
     2
1070
   172
1070
     0
1070
   271
1070
     1
1070
   272
1070
     1
1070
   274
1070
     2
1070
   279
1070
     1
1070
   283
1070
     1
1070
   284
1070
     0
1002
}
  0
DIMENSION
  5
1015893
330
1F
100
AcDbEntity
  8
VITE
100
AcDbDimension
280
     0
  2
*D40
 10
793.8931269647905
 20
554.1253150772848
 30
0.0
 11
783.8607404161016
 21
570.0806933594697
 31
0.0
 70
   160
 71
     5
 42
9.999999999999886
 73
     0
 74
     0
 75
     0
  3
ISO-25
100
AcDbAlignedDimension
 13
800.1763142513354
 23
564.1253150772845
 33
0.0
 14
824.0873430787067
 24
554.1253150772846
 34
0.0
 50
90.0
100
AcDbRotatedDimension
1001
ACAD
1000
DSTYLE
1002
{
1070
    41
1040
4.0
1070
    42
1040
0.0625
1070
    43
1040
0.38
1070
    44
1040
0.18
1070
    50
1040
1.570796326794896
1070
    77
1070
     0
1070
   140
1040
6.0
1070
   141
1040
0.09
1070
   143
1040
25.4
1070
   147
1040
0.1
1070
   171
1070
     2
1070
   172
1070
     0
1070
   271
1070
     1
1070
   272
1070
     1
1070
   274
1070
     2
1070
   279
1070
     1
1070
   283
1070
     1
1070
   284
1070
     0
1002
}
  0
LWPOLYLINE
  5
1015A6C
330
1F
100
AcDbEntity
  8
0
100
AcDbPolyline
 90
        6
 70
     0
 43
0.0
 10
1173.176314246915
 20
332.1061250772848
 10
1173.176314246915
 20
564.1061250772845
 10
800.176314246916
 20
564.1061250772845
 10
800.176314246916
 20
535.821853829822
 10
1003.892042999454
 20
332.1061250772846
 10
1173.176314246915
 20
332.1061250772846
  0
DIMENSION
  5
1015AA2
330
1F
100
AcDbEntity
  8
VITE
100
AcDbDimension
280
     0
  2
*D41
 10
1187.055795365959
 20
332.1253150772847
 30
0.0
 11
1196.385795365959
 21
340.2243150772843
 31
0.0
 70
    32
 71
     5
 42
10.0
 73
     0
 74
     0
 75
     0
  3
ISO-25
100
AcDbAlignedDimension
 13
1163.176314251335
 23
342.1253150772845
 33
0.0
 14
1173.176314251335
 24
332.1253150772845
 34
0.0
 50
90.0
100
AcDbRotatedDimension
1001
ACAD
1000
DSTYLE
1002
{
1070
    41
1040
4.0
1070
    42
1040
0.0625
1070
    43
1040
0.38
1070
    44
1040
0.18
1070
    50
1040
1.570796326794896
1070
    77
1070
     0
1070
   140
1040
6.0
1070
   141
1040
0.09
1070
   143
1040
25.4
1070
   147
1040
0.1
1070
   171
1070
     2
1070
   172
1070
     0
1070
   271
1070
     1
1070
   272
1070
     1
1070
   274
1070
     2
1070
   279
1070
     1
1070
   283
1070
     1
1070
   284
1070
     0
1002
}
  0
MTEXT
  5
1015CC4
330
1F
100
AcDbEntity
  8
0
100
AcDbMText
 10
497.7394087879811
 20
735.6737866812932
 30
0.0
 40
10.0
 41
587.6793751353175
 46
0.0
 71
     1
 72
     5
  1
{\fArial|b0|i0|c0|p34;Serie A, due pezzi. Compensato. Spessore: 4 mm, altezza: 232 mm}
 73
     1
 44
1.0
1001
ACAD
1000
ACAD_MTEXT_COLUMN_INFO_BEGIN
1070
    75
1070
     2
1070
    79
1070
     0
1070
    76
1070
     1
1070
    78
1070
     0
1070
    48
1040
587.6793751353175
1070
    49
1040
12.5
1070
    50
1070
     1
1040
12.94679399727149
1000
ACAD_MTEXT_COLUMN_INFO_END
  0
MTEXT
  5
1015CC5
330
1F
100
AcDbEntity
  8
0
100
AcDbMText
 10
497.7394087879811
 20
693.7756673014945
 30
0.0
 40
10.0
 41
583.0645708696738
 46
0.0
 71
     1
 72
     5
  1
{\fArial|b0|i1|c0|p34;A series, two pieces. Plywood. Thickness: 4 mm, height: 232 mm}
 73
     1
 44
1.0
1001
ACAD
1000
ACAD_MTEXT_COLUMN_INFO_BEGIN
1070
    75
1070
     2
1070
    79
1070
     0
1070
    76
1070
     1
1070
    78
1070
     0
1070
    48
1040
583.0645708696738
1070
    49
1040
12.5
1070
    50
1070
     1
1040
0.0
1000
ACAD_MTEXT_COLUMN_INFO_END
  0
ENDSEC
  0
SECTION
  2
OBJECTS
  0
DICTIONARY
  5
C
330
0
100
AcDbDictionary
281
     1
  3
ACAD_CIP_PREVIOUS_PRODUCT_INFO
350
1010056
  3
ACAD_COLOR
350
1010035
  3
ACAD_DETAILVIEWSTYLE
350
101004E
  3
ACAD_GROUP
350
D
  3
ACAD_LAYOUT
350
1010050
  3
ACAD_MATERIAL
350
1010003
  3
ACAD_MLEADERSTYLE
350
101004A
  3
ACAD_MLINESTYLE
350
17
  3
ACAD_PLOTSETTINGS
350
1010051
  3
ACAD_PLOTSTYLENAME
350
1010001
  3
ACAD_SCALELIST
350
1010038
  3
ACAD_SECTIONVIEWSTYLE
350
101004C
  3
ACAD_TABLESTYLE
350
1010036
  3
ACAD_VISUALSTYLE
350
101001C
  3
ACDB_RECOMPOSE_DATA
350
1015D46
  3
AcDbVariableDictionary
350
10122A7
  0
DICTIONARY
  5
10100E0
330
2
100
AcDbDictionary
280
     1
281
     1
  3
ACAD_LAYERSTATES
360
10100E1
  0
DICTIONARY
  5
1010066
330
50
100
AcDbDictionary
280
     1
281
     1
  3
ADSK_XREC_LAYER_RECONCILED
360
1010067
  0
DICTIONARY
  5
1010068
330
51
100
AcDbDictionary
280
     1
281
     1
  3
ADSK_XREC_LAYER_RECONCILED
360
1010069
  0
DICTIONARY
  5
10100B6
330
1F
100
AcDbDictionary
280
     1
281
     1
  3
ACAD_SORTENTS
360
10100B7
  0
XRECORD
  5
1010056
102
{ACAD_REACTORS
330
C
102
}
330
C
100
AcDbXrecord
280
     1
300
ACD
300
2017
300
ACD_F_S
  0
DICTIONARY
  5
1010035
102
{ACAD_REACTORS
330
C
102
}
330
C
100
AcDbDictionary
281
     1
  0
DICTIONARY
  5
101004E
102
{ACAD_REACTORS
330
C
102
}
330
C
100
AcDbDictionary
281
     1
  3
Metric50
350
101004F
  0
DICTIONARY
  5
D
330
C
100
AcDbDictionary
281
     1
  0
DICTIONARY
  5
1010050
102
{ACAD_REACTORS
330
C
102
}
330
C
100
AcDbDictionary
281
     1
  3
Layout1
350
1010053
  3
Model
350
1010052
  0
DICTIONARY
  5
1010003
102
{ACAD_REACTORS
330
C
102
}
330
C
100
AcDbDictionary
281
     1
  3
ByBlock
350
101000C
  3
ByLayer
350
1010004
  3
Global
350
1010014
  0
DICTIONARY
  5
101004A
102
{ACAD_REACTORS
330
C
102
}
330
C
100
AcDbDictionary
281
     1
  3
Standard
350
101004B
  0
DICTIONARY
  5
17
330
C
100
AcDbDictionary
281
     1
  3
Standard
350
1010AC4
  0
DICTIONARY
  5
1010051
102
{ACAD_REACTORS
330
C
102
}
330
C
100
AcDbDictionary
281
     1
  0
ACDBDICTIONARYWDFLT
  5
1010001
102
{ACAD_REACTORS
330
C
102
}
330
C
100
AcDbDictionary
281
     1
  3
Normal
350
1010002
100
AcDbDictionaryWithDefault
340
1010002
  0
DICTIONARY
  5
1010038
102
{ACAD_REACTORS
330
C
102
}
330
C
100
AcDbDictionary
281
     1
  3
A0
350
1010039
  3
A1
350
101003A
  3
A2
350
101003B
  3
A3
350
101003C
  3
A4
350
101003D
  3
A5
350
101003E
  3
A6
350
101003F
  3
A7
350
1010040
  3
A8
350
1010041
  3
A9
350
1010042
  3
B0
350
1010043
  3
B1
350
1010044
  3
B2
350
1010045
  3
B3
350
1010046
  3
B4
350
1010047
  3
B5
350
1010048
  3
B6
350
1010049
  0
DICTIONARY
  5
101004C
102
{ACAD_REACTORS
330
C
102
}
330
C
100
AcDbDictionary
281
     1
  3
Metric50
350
101004D
  0
DICTIONARY
  5
1010036
102
{ACAD_REACTORS
330
C
102
}
330
C
100
AcDbDictionary
281
     1
  3
Standard
350
1010037
  0
DICTIONARY
  5
101001C
102
{ACAD_REACTORS
330
C
102
}
330
C
100
AcDbDictionary
281
     1
  3
2dWireframe
350
1010022
  3
Basic
350
1010021
  3
Brighten
350
1010028
  3
ColorChange
350
101002C
  3
Conceptual
350
1010025
  3
Dim
350
1010027
  3
EdgeColorOff
350
1010034
  3
Facepattern
350
101002B
  3
Flat
350
101001D
  3
FlatWithEdges
350
101001E
  3
Gouraud
350
101001F
  3
GouraudWithEdges
350
1010020
  3
Hidden
350
1010024
  3
JitterOff
350
1010032
  3
Linepattern
350
101002A
  3
OverhangOff
350
1010033
  3
Realistic
350
1010026
  3
Shaded
350
1010031
  3
Shaded with edges
350
1010030
  3
Shades of Gray
350
101002D
  3
Sketchy
350
101002E
  3
Thicken
350
1010029
  3
Wireframe
350
1010023
  3
X-Ray
350
101002F
  0
XRECORD
  5
1015D46
102
{ACAD_REACTORS
330
C
102
}
330
C
100
AcDbXrecord
280
     1
 90
        1
330
1010037
330
101004D
330
101004F
330
10152C4
330
10152C5
330
1015CC4
330
1015CC5
  0
DICTIONARY
  5
10122A7
102
{ACAD_REACTORS
330
C
102
}
330
C
100
AcDbDictionary
281
     1
  3
CANNOSCALE
350
1012912
  3
CMLEADERSTYLE
350
101290E
  3
CTABLESTYLE
350
101290D
  3
CVIEWDETAILSTYLE
350
101290F
  3
CVIEWSECTIONSTYLE
350
1012910
  3
DIMLAYER
350
10122A8
  3
HPCOLOR
350
1012F7C
  3
HPTRANSPARENCY
350
1012F7B
  3
LAYEREVAL
350
1012914
  3
LAYERNOTIFY
350
1012915
  3
LIGHTINGUNITS
350
1012913
  3
MSLTSCALE
350
1012911
  3
XCLIPFRAME
350
1014D2D
  0
DICTIONARY
  5
10100E1
102
{ACAD_REACTORS
330
10100E0
102
}
330
10100E0
100
AcDbDictionary
281
     1
  0
XRECORD
  5
1010067
102
{ACAD_REACTORS
330
1010066
102
}
330
1010066
100
AcDbXrecord
280
     1
290
     1
  0
XRECORD
  5
1010069
102
{ACAD_REACTORS
330
1010068
102
}
330
1010068
100
AcDbXrecord
280
     1
290
     1
  0
SORTENTSTABLE
  5
10100B7
102
{ACAD_REACTORS
330
10100B6
102
}
330
10100B6
100
AcDbSortentsTable
330
1F
  0
ACDBDETAILVIEWSTYLE
  5
101004F
102
{ACAD_XDICTIONARY
360
1014D6A
102
}
102
{ACAD_REACTORS
330
101004E
102
}
330
101004E
100
AcDbModelDocViewStyle
 70
     0
  3
Metric50
290
     0
100
AcDbDetailViewStyle
 70
     0
 71
     0
 90
        3
 71
     1
340
11
 62
   256
 40
5.0
340
0
 62
   256
 40
5.0
300

 40
0.0
280
     1
 71
     2
340
16
 90
       25
 62
   256
 71
     3
340
11
 62
   256
 40
5.0
 90
        0
 40
15.0
 90
        1
300
%<\AcVar ViewDetailId>% (%<\AcVar ViewScale \f "%sn">%)
 71
     4
340
16
 90
       25
 62
   256
340
16
 90
       25
 62
   256
280
     0
  0
LAYOUT
  5
1010053
102
{ACAD_REACTORS
330
1010050
102
}
330
1010050
100
AcDbPlotSettings
  1

  2
Samsung ML-2850 Series (USB001)
  4

  6

 40
0.0
 41
0.0
 42
0.0
 43
0.0
 44
0.0
 45
0.0
 46
0.0
 47
0.0
 48
0.0
 49
0.0
140
0.0
141
0.0
142
1.0
143
1.0
 70
   688
 72
     0
 73
     0
 74
     5
  7
cetra.ctb
 75
    16
147
1.0
 76
     0
 77
     2
 78
   300
148
0.0
149
0.0
100
AcDbLayout
  1
Layout1
 70
     1
 71
     1
 10
0.0
 20
0.0
 11
12.0
 21
9.0
 12
0.0
 22
0.0
 32
0.0
 14
1.000000000000000E+20
 24
1.000000000000000E+20
 34
1.000000000000000E+20
 15
-1.000000000000000E+20
 25
-1.000000000000000E+20
 35
-1.000000000000000E+20
146
0.0
 13
0.0
 23
0.0
 33
0.0
 16
1.0
 26
0.0
 36
0.0
 17
0.0
 27
1.0
 37
0.0
 76
     0
330
1B
  0
LAYOUT
  5
1010052
102
{ACAD_REACTORS
330
1010050
102
}
330
1010050
100
AcDbPlotSettings
  1

  2
DWG To PDF.pc3
  4
ISO_full_bleed_A4_(210.00_x_297.00_MM)
  6

 40
0.7937499880790711
 41
0.7937499880790711
 42
0.7937469482421875
 43
0.79376220703125
 44
210.0
 45
297.0
 46
13.0803885125553
 47
0.0
 48
450.8394895339534
 49
269.1254511249308
140
1224.67535707733
141
746.5356093017271
142
1.0
143
2.619509666952436
 70
 11956
 72
     1
 73
     1
 74
     4
  7
cetra.ctb
 75
     0
147
0.3817508339884883
 76
     0
 77
     2
 78
   300
148
-450.8394895339534
149
-269.1254511249308
100
AcDbLayout
  1
Model
 70
     1
 71
     0
 10
0.0
 20
0.0
 11
12.0
 21
9.0
 12
0.0
 22
0.0
 32
0.0
 14
0.0
 24
0.0
 34
0.0
 15
0.0
 25
0.0
 35
0.0
146
0.0
 13
0.0
 23
0.0
 33
0.0
 16
1.0
 26
0.0
 36
0.0
 17
0.0
 27
1.0
 37
0.0
 76
     0
330
1F
331
2E
1001
ACAD_PSEXT
1000
DWG To PDF.pc3
1000
DWG To PDF
1000
File
1000

1070
     0
  0
MATERIAL
  5
101000C
102
{ACAD_XDICTIONARY
360
101000D
102
}
102
{ACAD_REACTORS
330
1010003
102
}
330
1010003
100
AcDbMaterial
  1
ByBlock
 72
     0
 43
0.0208333333333333
 43
0.0
 43
0.0
 43
0.0
 43
0.0
 43
0.0208333333333333
 43
0.0
 43
0.0
 43
0.0
 43
0.0
 43
1.0
 43
0.0
 43
0.0
 43
0.0
 43
0.0
 43
1.0
 77
     0
 47
0.0208333333333333
 47
0.0
 47
0.0
 47
0.0
 47
0.0
 47
0.0208333333333333
 47
0.0
 47
0.0
 47
0.0
 47
0.0
 47
1.0
 47
0.0
 47
0.0
 47
0.0
 47
0.0
 47
1.0
171
     0
 49
0.0208333333333333
 49
0.0
 49
0.0
 49
0.0
 49
0.0
 49
0.0208333333333333
 49
0.0
 49
0.0
 49
0.0
 49
0.0
 49
1.0
 49
0.0
 49
0.0
 49
0.0
 49
0.0
 49
1.0
175
     0
142
0.0208333333333333
142
0.0
142
0.0
142
0.0
142
0.0
142
0.0208333333333333
142
0.0
142
0.0
142
0.0
142
0.0
142
1.0
142
0.0
142
0.0
142
0.0
142
0.0
142
1.0
179
     0
144
0.0208333333333333
144
0.0
144
0.0
144
0.0
144
0.0
144
0.0208333333333333
144
0.0
144
0.0
144
0.0
144
0.0
144
1.0
144
0.0
144
0.0
144
0.0
144
0.0
144
1.0
147
0.0208333333333333
147
0.0
147
0.0
147
0.0
147
0.0
147
0.0208333333333333
147
0.0
147
0.0
147
0.0
147
0.0
147
1.0
147
0.0
147
0.0
147
0.0
147
0.0
147
1.0
  0
MATERIAL
  5
1010004
102
{ACAD_XDICTIONARY
360
1010005
102
}
102
{ACAD_REACTORS
330
1010003
102
}
330
1010003
100
AcDbMaterial
  1
ByLayer
 72
     0
 43
0.0208333333333333
 43
0.0
 43
0.0
 43
0.0
 43
0.0
 43
0.0208333333333333
 43
0.0
 43
0.0
 43
0.0
 43
0.0
 43
1.0
 43
0.0
 43
0.0
 43
0.0
 43
0.0
 43
1.0
 77
     0
 47
0.0208333333333333
 47
0.0
 47
0.0
 47
0.0
 47
0.0
 47
0.0208333333333333
 47
0.0
 47
0.0
 47
0.0
 47
0.0
 47
1.0
 47
0.0
 47
0.0
 47
0.0
 47
0.0
 47
1.0
171
     0
 49
0.0208333333333333
 49
0.0
 49
0.0
 49
0.0
 49
0.0
 49
0.0208333333333333
 49
0.0
 49
0.0
 49
0.0
 49
0.0
 49
1.0
 49
0.0
 49
0.0
 49
0.0
 49
0.0
 49
1.0
175
     0
142
0.0208333333333333
142
0.0
142
0.0
142
0.0
142
0.0
142
0.0208333333333333
142
0.0
142
0.0
142
0.0
142
0.0
142
1.0
142
0.0
142
0.0
142
0.0
142
0.0
142
1.0
179
     0
144
0.0208333333333333
144
0.0
144
0.0
144
0.0
144
0.0
144
0.0208333333333333
144
0.0
144
0.0
144
0.0
144
0.0
144
1.0
144
0.0
144
0.0
144
0.0
144
0.0
144
1.0
147
0.0208333333333333
147
0.0
147
0.0
147
0.0
147
0.0
147
0.0208333333333333
147
0.0
147
0.0
147
0.0
147
0.0
147
1.0
147
0.0
147
0.0
147
0.0
147
0.0
147
1.0
  0
MATERIAL
  5
1010014
102
{ACAD_XDICTIONARY
360
1010015
102
}
102
{ACAD_REACTORS
330
1010003
102
}
330
1010003
100
AcDbMaterial
  1
Global
 72
     0
 43
0.0208333333333333
 43
0.0
 43
0.0
 43
0.0
 43
0.0
 43
0.0208333333333333
 43
0.0
 43
0.0
 43
0.0
 43
0.0
 43
1.0
 43
0.0
 43
0.0
 43
0.0
 43
0.0
 43
1.0
 77
     0
 47
0.0208333333333333
 47
0.0
 47
0.0
 47
0.0
 47
0.0
 47
0.0208333333333333
 47
0.0
 47
0.0
 47
0.0
 47
0.0
 47
1.0
 47
0.0
 47
0.0
 47
0.0
 47
0.0
 47
1.0
171
     0
 49
0.0208333333333333
 49
0.0
 49
0.0
 49
0.0
 49
0.0
 49
0.0208333333333333
 49
0.0
 49
0.0
 49
0.0
 49
0.0
 49
1.0
 49
0.0
 49
0.0
 49
0.0
 49
0.0
 49
1.0
175
     0
142
0.0208333333333333
142
0.0
142
0.0
142
0.0
142
0.0
142
0.0208333333333333
142
0.0
142
0.0
142
0.0
142
0.0
142
1.0
142
0.0
142
0.0
142
0.0
142
0.0
142
1.0
179
     0
144
0.0208333333333333
144
0.0
144
0.0
144
0.0
144
0.0
144
0.0208333333333333
144
0.0
144
0.0
144
0.0
144
0.0
144
1.0
144
0.0
144
0.0
144
0.0
144
0.0
144
1.0
147
0.0208333333333333
147
0.0
147
0.0
147
0.0
147
0.0
147
0.0208333333333333
147
0.0
147
0.0
147
0.0
147
0.0
147
1.0
147
0.0
147
0.0
147
0.0
147
0.0
147
1.0
  0
MLEADERSTYLE
  5
101004B
102
{ACAD_REACTORS
330
101004A
102
}
330
101004A
100
AcDbMLeaderStyle
179
     2
170
     2
171
     1
172
     0
 90
        2
 40
0.0
 41
0.0
173
     1
 91
-1056964608
340
14
 92
       -2
290
     1
 42
2.0
291
     1
 43
0.36
  3
Standard
 44
4.0
300

342
11
174
     1
178
     6
175
     1
176
     0
 93
-1056964608
 45
4.0
292
     0
297
     0
 46
4.0
 94
-1056964608
 47
1.0
 49
1.0
140
1.0
293
     1
141
0.0
294
     1
177
     0
142
1.0
295
     0
296
     0
143
0.125
271
     0
272
     9
273
     9
298
     0
1001
ACAD_MLEADERVER
1070
     2
  0
MLINESTYLE
  5
1010AC4
102
{ACAD_REACTORS
330
17
102
}
330
17
100
AcDbMlineStyle
  2
STANDARD
 70
     0
  3

 62
   256
 51
90.0
 52
90.0
 71
     2
 49
0.5
 62
   256
  6
BYLAYER
 49
-0.5
 62
   256
  6
BYLAYER
  0
ACDBPLACEHOLDER
  5
1010002
102
{ACAD_REACTORS
330
1010001
102
}
330
1010001
  0
SCALE
  5
1010039
102
{ACAD_REACTORS
330
1010038
102
}
330
1010038
100
AcDbScale
 70
     0
300
1:1
140
1.0
141
1.0
290
     1
  0
SCALE
  5
101003A
102
{ACAD_REACTORS
330
1010038
102
}
330
1010038
100
AcDbScale
 70
     0
300
1:2
140
1.0
141
2.0
290
     0
  0
SCALE
  5
101003B
102
{ACAD_REACTORS
330
1010038
102
}
330
1010038
100
AcDbScale
 70
     0
300
1:4
140
1.0
141
4.0
290
     0
  0
SCALE
  5
101003C
102
{ACAD_REACTORS
330
1010038
102
}
330
1010038
100
AcDbScale
 70
     0
300
1:5
140
1.0
141
5.0
290
     0
  0
SCALE
  5
101003D
102
{ACAD_REACTORS
330
1010038
102
}
330
1010038
100
AcDbScale
 70
     0
300
1:8
140
1.0
141
8.0
290
     0
  0
SCALE
  5
101003E
102
{ACAD_REACTORS
330
1010038
102
}
330
1010038
100
AcDbScale
 70
     0
300
1:10
140
1.0
141
10.0
290
     0
  0
SCALE
  5
101003F
102
{ACAD_REACTORS
330
1010038
102
}
330
1010038
100
AcDbScale
 70
     0
300
1:16
140
1.0
141
16.0
290
     0
  0
SCALE
  5
1010040
102
{ACAD_REACTORS
330
1010038
102
}
330
1010038
100
AcDbScale
 70
     0
300
1:20
140
1.0
141
20.0
290
     0
  0
SCALE
  5
1010041
102
{ACAD_REACTORS
330
1010038
102
}
330
1010038
100
AcDbScale
 70
     0
300
1:30
140
1.0
141
30.0
290
     0
  0
SCALE
  5
1010042
102
{ACAD_REACTORS
330
1010038
102
}
330
1010038
100
AcDbScale
 70
     0
300
1:40
140
1.0
141
40.0
290
     0
  0
SCALE
  5
1010043
102
{ACAD_REACTORS
330
1010038
102
}
330
1010038
100
AcDbScale
 70
     0
300
1:50
140
1.0
141
50.0
290
     0
  0
SCALE
  5
1010044
102
{ACAD_REACTORS
330
1010038
102
}
330
1010038
100
AcDbScale
 70
     0
300
1:100
140
1.0
141
100.0
290
     0
  0
SCALE
  5
1010045
102
{ACAD_REACTORS
330
1010038
102
}
330
1010038
100
AcDbScale
 70
     0
300
2:1
140
2.0
141
1.0
290
     0
  0
SCALE
  5
1010046
102
{ACAD_REACTORS
330
1010038
102
}
330
1010038
100
AcDbScale
 70
     0
300
4:1
140
4.0
141
1.0
290
     0
  0
SCALE
  5
1010047
102
{ACAD_REACTORS
330
1010038
102
}
330
1010038
100
AcDbScale
 70
     0
300
8:1
140
8.0
141
1.0
290
     0
  0
SCALE
  5
1010048
102
{ACAD_REACTORS
330
1010038
102
}
330
1010038
100
AcDbScale
 70
     0
300
10:1
140
10.0
141
1.0
290
     0
  0
SCALE
  5
1010049
102
{ACAD_REACTORS
330
1010038
102
}
330
1010038
100
AcDbScale
 70
     0
300
100:1
140
100.0
141
1.0
290
     0
  0
ACDBSECTIONVIEWSTYLE
  5
101004D
102
{ACAD_XDICTIONARY
360
1014D68
102
}
102
{ACAD_REACTORS
330
101004C
102
}
330
101004C
100
AcDbModelDocViewStyle
 70
     0
  3
Metric50
290
     0
100
AcDbSectionViewStyle
 70
     0
 71
     0
 90
      102
 71
     1
340
11
 62
   256
 40
5.0
340
0
340
0
 62
   256
 40
5.0
300
I, O, Q, S, X, Z
 40
10.0
 90
        0
 40
2.5
 90
        0
 71
     2
340
16
 90
       25
 62
   256
340
16
 90
       50
 62
   256
 40
5.0
 40
2.5
 40
5.0
 71
     3
340
11
 62
   256
 40
5.0
 90
        0
 40
15.0
 90
        1
300
%<\AcVar ViewSectionStartId>%-%<\AcVar ViewSectionEndId>% (%<\AcVar ViewScale \f "%sn">%)
 71
     4
 62
   256
 62
   257
300
ANSI31
 40
1.0
 90
        0
290
     0
290
     0
 90
        6
 40
0.0
 40
1.570796326794896
 40
0.2617993877991494
 40
1.308996938995747
 40
-0.2617993877991494
 40
1.832595714594045
  0
TABLESTYLE
  5
1010037
102
{ACAD_XDICTIONARY
360
1014CE2
102
}
102
{ACAD_REACTORS
330
1010036
102
}
330
1010036
100
AcDbTableStyle
280
     0
  3
Standard
 70
     0
 71
     0
 40
1.5
 41
1.5
280
     0
281
     0
  7
STANDARD
140
4.5
170
     2
 62
     0
 63
     7
283
     0
 90
      512
 91
        0
  1

274
    -2
284
     1
 64
     0
275
    -2
285
     1
 65
     0
276
    -2
286
     1
 66
     0
277
    -2
287
     1
 67
     0
278
    -2
288
     1
 68
     0
279
    -2
289
     1
 69
     0
  7
STANDARD
140
6.0
170
     5
 62
     0
 63
     7
283
     0
 90
      512
 91
        0
  1

274
    -2
284
     1
 64
     0
275
    -2
285
     1
 65
     0
276
    -2
286
     1
 66
     0
277
    -2
287
     1
 67
     0
278
    -2
288
     1
 68
     0
279
    -2
289
     1
 69
     0
  7
STANDARD
140
4.5
170
     5
 62
     0
 63
     7
283
     0
 90
      512
 91
        0
  1

274
    -2
284
     1
 64
     0
275
    -2
285
     1
 65
     0
276
    -2
286
     1
 66
     0
277
    -2
287
     1
 67
     0
278
    -2
288
     1
 68
     0
279
    -2
289
     1
 69
     0
  0
VISUALSTYLE
  5
1010022
102
{ACAD_REACTORS
330
101001C
102
}
330
101001C
100
AcDbVisualStyle
  2

 70
     4
177
     3
291
     0
 70
    58
 90
        0
176
     1
 90
        2
176
     1
 90
        0
176
     1
 90
        0
176
     1
 40
0.6
176
     1
 40
30.0
176
     1
 62
     7
420
 16777215
176
     1
 90
        1
176
     1
 90
        4
176
     1
 62
     7
176
     1
 62
   257
176
     1
 90
        1
176
     1
 90
        1
176
     1
 40
1.0
176
     1
 90
        0
176
     1
 62
   257
176
     1
 40
1.0
176
     1
 90
        1
176
     1
 90
        6
176
     1
 90
        2
176
     1
 62
     7
176
     1
 90
        5
176
     1
 90
        0
176
     1
 90
        0
176
     1
290
     0
176
     1
 90
        1
176
     1
 40
0.0
176
     1
 90
        0
176
     1
290
     1
176
     1
290
     1
176
     1
290
     0
176
     1
290
     0
176
     1
290
     0
176
     1
290
     0
176
     1
290
     0
176
     1
290
     0
176
     1
290
     0
176
     1
 90
       50
176
     1
 40
0.0
176
     1
 40
1.0
176
     1
 90
        0
176
     1
 62
    18
420
        0
176
     1
 90
       50
176
     1
 90
        3
176
     1
 62
     5
420
      255
176
     1
290
     0
176
     1
 90
       50
176
     1
 90
       50
176
     1
 90
       50
176
     1
290
     0
176
     1
 90
       50
176
     1
 62
   256
176
     0
 40
1.0
176
     0
 90
        2
176
     1
  1
strokes_ogs.tif
176
     1
290
     0
176
     1
 40
1.0
176
     1
 40
1.0
176
     1
  0
VISUALSTYLE
  5
1010021
102
{ACAD_REACTORS
330
101001C
102
}
330
101001C
100
AcDbVisualStyle
  2

 70
     7
177
     3
291
     1
 70
    58
 90
        1
176
     1
 90
        0
176
     1
 90
        1
176
     1
 90
        0
176
     1
 40
0.6
176
     1
 40
30.0
176
     1
 62
     7
420
 16777215
176
     1
 90
        0
176
     1
 90
        4
176
     1
 62
     7
176
     1
 62
   257
176
     1
 90
        1
176
     1
 90
        1
176
     1
 40
1.0
176
     1
 90
        8
176
     1
 62
     7
176
     1
 40
1.0
176
     1
 90
        1
176
     1
 90
        6
176
     1
 90
        2
176
     1
 62
     7
176
     1
 90
        5
176
     1
 90
        0
176
     1
 90
        0
176
     1
290
     0
176
     1
 90
        1
176
     1
 40
0.0
176
     1
 90
        0
176
     1
290
     0
176
     1
290
     1
176
     1
290
     1
176
     1
290
     0
176
     1
290
     0
176
     1
290
     0
176
     1
290
     0
176
     1
290
     0
176
     1
290
     0
176
     1
 90
       50
176
     1
 40
0.0
176
     1
 40
1.0
176
     1
 90
        0
176
     1
 62
    18
420
        0
176
     1
 90
       50
176
     1
 90
        3
176
     1
 62
     5
420
      255
176
     1
290
     0
176
     1
 90
       50
176
     1
 90
       50
176
     1
 90
       50
176
     1
290
     0
176
     1
 90
       50
176
     1
 62
   256
176
     0
 40
1.0
176
     0
 90
        2
176
     1
  1
strokes_ogs.tif
176
     1
290
     0
176
     1
 40
1.0
176
     1
 40
1.0
176
     1
  0
VISUALSTYLE
  5
1010028
102
{ACAD_REACTORS
330
101001C
102
}
330
101001C
100
AcDbVisualStyle
  2

 70
    12
177
     3
291
     1
 70
    58
 90
        2
176
     1
 90
        2
176
     1
 90
        0
176
     1
 90
        0
176
     1
 40
0.6
176
     1
 40
30.0
176
     1
 62
     7
420
 16777215
176
     1
 90
        1
176
     1
 90
        4
176
     1
 62
     7
176
     1
 62
   257
176
     1
 90
        1
176
     1
 90
        1
176
     1
 40
1.0
176
     1
 90
        8
176
     1
 62
     7
176
     1
 40
1.0
176
     1
 90
        1
176
     1
 90
        6
176
     1
 90
        2
176
     1
 62
     7
176
     1
 90
        5
176
     1
 90
        0
176
     1
 90
        0
176
     1
290
     0
176
     1
 90
        1
176
     1
 40
50.0
176
     1
 90
        0
176
     1
290
     0
176
     1
290
     1
176
     1
290
     1
176
     1
290
     0
176
     1
290
     0
176
     1
290
     0
176
     1
290
     0
176
     1
290
     0
176
     1
290
     0
176
     1
 90
       50
176
     1
 40
0.0
176
     1
 40
1.0
176
     1
 90
        0
176
     1
 62
    18
420
        0
176
     1
 90
       50
176
     1
 90
        3
176
     1
 62
     5
420
      255
176
     1
290
     0
176
     1
 90
       50
176
     1
 90
       50
176
     1
 90
       50
176
     1
290
     0
176
     1
 90
       50
176
     1
 62
   256
176
     0
 40
1.0
176
     0
 90
        2
176
     1
  1
strokes_ogs.tif
176
     1
290
     0
176
     1
 40
1.0
176
     1
 40
1.0
176
     1
  0
VISUALSTYLE
  5
101002C
102
{ACAD_REACTORS
330
101001C
102
}
330
101001C
100
AcDbVisualStyle
  2

 70
    16
177
     3
291
     1
 70
    58
 90
        2
176
     1
 90
        2
176
     1
 90
        3
176
     1
 90
        0
176
     1
 40
0.6
176
     1
 40
30.0
176
     1
 62
     8
420
  8421504
176
     1
 90
        1
176
     1
 90
        4
176
     1
 62
     7
176
     1
 62
   257
176
     1
 90
        1
176
     1
 90
        1
176
     1
 40
1.0
176
     1
 90
        8
176
     1
 62
     8
420
  8421504
176
     1
 40
1.0
176
     1
 90
        1
176
     1
 90
        6
176
     1
 90
        2
176
     1
 62
     7
176
     1
 90
        5
176
     1
 90
        0
176
     1
 90
        0
176
     1
290
     0
176
     1
 90
        1
176
     1
 40
0.0
176
     1
 90
        0
176
     1
290
     0
176
     1
290
     1
176
     1
290
     1
176
     1
290
     0
176
     1
290
     0
176
     1
290
     0
176
     1
290
     0
176
     1
290
     0
176
     1
290
     0
176
     1
 90
       50
176
     1
 40
0.0
176
     1
 40
1.0
176
     1
 90
        0
176
     1
 62
    18
420
        0
176
     1
 90
       50
176
     1
 90
        3
176
     1
 62
     5
420
      255
176
     1
290
     0
176
     1
 90
       50
176
     1
 90
       50
176
     1
 90
       50
176
     1
290
     0
176
     1
 90
       50
176
     1
 62
   256
176
     0
 40
1.0
176
     0
 90
        2
176
     1
  1
strokes_ogs.tif
176
     1
290
     0
176
     1
 40
1.0
176
     1
 40
1.0
176
     1
  0
VISUALSTYLE
  5
1010025
102
{ACAD_REACTORS
330
101001C
102
}
330
101001C
100
AcDbVisualStyle
  2

 70
     9
177
     3
291
     0
 70
    58
 90
        3
176
     1
 90
        2
176
     1
 90
        0
176
     1
 90
        0
176
     1
 40
0.6
176
     1
 40
30.0
176
     1
 62
     7
420
 16777215
176
     1
 90
        2
176
     1
 90
        2
176
     1
 62
     7
176
     1
 62
   257
176
     1
 90
        1
176
     1
 90
        1
176
     1
 40
179.0
176
     1
 90
        8
176
     1
 62
     7
176
     1
 40
1.0
176
     1
 90
        1
176
     1
 90
        6
176
     1
 90
        2
176
     1
 62
     7
176
     1
 90
        3
176
     1
 90
        0
176
     1
 90
        0
176
     1
290
     0
176
     1
 90
        1
176
     1
 40
0.0
176
     1
 90
        0
176
     1
290
     0
176
     1
290
     1
176
     1
290
     1
176
     1
290
     0
176
     1
290
     0
176
     1
290
     0
176
     1
290
     0
176
     1
290
     0
176
     1
290
     0
176
     1
 90
       50
176
     1
 40
0.0
176
     1
 40
1.0
176
     1
 90
        0
176
     1
 62
    18
420
        0
176
     1
 90
       50
176
     1
 90
        3
176
     1
 62
     5
420
      255
176
     1
290
     0
176
     1
 90
       50
176
     1
 90
       50
176
     1
 90
       50
176
     1
290
     0
176
     1
 90
       50
176
     1
 62
   256
176
     0
 40
1.0
176
     0
 90
        2
176
     1
  1
strokes_ogs.tif
176
     1
290
     0
176
     1
 40
1.0
176
     1
 40
1.0
176
     1
  0
VISUALSTYLE
  5
1010027
102
{ACAD_REACTORS
330
101001C
102
}
330
101001C
100
AcDbVisualStyle
  2

 70
    11
177
     3
291
     1
 70
    58
 90
        2
176
     1
 90
        2
176
     1
 90
        0
176
     1
 90
        0
176
     1
 40
0.6
176
     1
 40
30.0
176
     1
 62
     7
420
 16777215
176
     1
 90
        1
176
     1
 90
        4
176
     1
 62
     7
176
     1
 62
   257
176
     1
 90
        1
176
     1
 90
        1
176
     1
 40
1.0
176
     1
 90
        8
176
     1
 62
     7
176
     1
 40
1.0
176
     1
 90
        1
176
     1
 90
        6
176
     1
 90
        2
176
     1
 62
     7
176
     1
 90
        5
176
     1
 90
        0
176
     1
 90
        0
176
     1
290
     0
176
     1
 90
        1
176
     1
 40
-50.0
176
     1
 90
        0
176
     1
290
     0
176
     1
290
     1
176
     1
290
     1
176
     1
290
     0
176
     1
290
     0
176
     1
290
     0
176
     1
290
     0
176
     1
290
     0
176
     1
290
     0
176
     1
 90
       50
176
     1
 40
0.0
176
     1
 40
1.0
176
     1
 90
        0
176
     1
 62
    18
420
        0
176
     1
 90
       50
176
     1
 90
        3
176
     1
 62
     5
420
      255
176
     1
290
     0
176
     1
 90
       50
176
     1
 90
       50
176
     1
 90
       50
176
     1
290
     0
176
     1
 90
       50
176
     1
 62
   256
176
     0
 40
1.0
176
     0
 90
        2
176
     1
  1
strokes_ogs.tif
176
     1
290
     0
176
     1
 40
1.0
176
     1
 40
1.0
176
     1
  0
VISUALSTYLE
  5
1010034
102
{ACAD_REACTORS
330
101001C
102
}
330
101001C
100
AcDbVisualStyle
  2

 70
    22
177
     3
291
     1
 70
    58
 90
        2
176
     0
 90
        2
176
     0
 90
        0
176
     0
 90
        0
176
     0
 40
0.6
176
     0
 40
30.0
176
     0
 62
     7
420
 16777215
176
     0
 90
        1
176
     0
 90
        4
176
     0
 62
     7
176
     0
 62
   257
176
     0
 90
        1
176
     0
 90
        1
176
     0
 40
1.0
176
     0
 90
        8
176
     2
 62
     7
176
     0
 40
1.0
176
     0
 90
        1
176
     0
 90
        6
176
     0
 90
        2
176
     0
 62
     7
176
     0
 90
        5
176
     0
 90
        0
176
     0
 90
        0
176
     0
290
     0
176
     0
 90
        1
176
     0
 40
0.0
176
     0
 90
        0
176
     0
290
     0
176
     1
290
     1
176
     1
290
     1
176
     1
290
     0
176
     1
290
     0
176
     1
290
     0
176
     1
290
     0
176
     1
290
     0
176
     1
290
     0
176
     1
 90
       50
176
     0
 40
0.0
176
     0
 40
1.0
176
     0
 90
        0
176
     0
 62
    18
420
        0
176
     0
 90
       50
176
     0
 90
        3
176
     0
 62
     5
420
      255
176
     0
290
     0
176
     1
 90
       50
176
     0
 90
       50
176
     0
 90
       50
176
     0
290
     0
176
     1
 90
       50
176
     0
 62
   256
176
     0
 40
1.0
176
     0
 90
        2
176
     0
  1
strokes_ogs.tif
176
     0
290
     0
176
     1
 40
1.0
176
     0
 40
1.0
176
     0
  0
VISUALSTYLE
  5
101002B
102
{ACAD_REACTORS
330
101001C
102
}
330
101001C
100
AcDbVisualStyle
  2

 70
    15
177
     3
291
     1
 70
    58
 90
        2
176
     1
 90
        2
176
     1
 90
        0
176
     1
 90
        0
176
     1
 40
0.6
176
     1
 40
30.0
176
     1
 62
     7
420
 16777215
176
     1
 90
        1
176
     1
 90
        4
176
     1
 62
     7
176
     1
 62
   257
176
     1
 90
        1
176
     1
 90
        1
176
     1
 40
1.0
176
     1
 90
        8
176
     1
 62
     7
176
     1
 40
1.0
176
     1
 90
        1
176
     1
 90
        6
176
     1
 90
        2
176
     1
 62
     7
176
     1
 90
        5
176
     1
 90
        0
176
     1
 90
        0
176
     1
290
     0
176
     1
 90
        1
176
     1
 40
0.0
176
     1
 90
        0
176
     1
290
     0
176
     1
290
     1
176
     1
290
     1
176
     1
290
     0
176
     1
290
     0
176
     1
290
     0
176
     1
290
     0
176
     1
290
     0
176
     1
290
     0
176
     1
 90
       50
176
     1
 40
0.0
176
     1
 40
1.0
176
     1
 90
        0
176
     1
 62
    18
420
        0
176
     1
 90
       50
176
     1
 90
        3
176
     1
 62
     5
420
      255
176
     1
290
     0
176
     1
 90
       50
176
     1
 90
       50
176
     1
 90
       50
176
     1
290
     0
176
     1
 90
       50
176
     1
 62
   256
176
     0
 40
1.0
176
     0
 90
        2
176
     1
  1
strokes_ogs.tif
176
     1
290
     0
176
     1
 40
1.0
176
     1
 40
1.0
176
     1
  0
VISUALSTYLE
  5
101001D
102
{ACAD_REACTORS
330
101001C
102
}
330
101001C
100
AcDbVisualStyle
  2

 70
     0
177
     3
291
     1
 70
    58
 90
        2
176
     1
 90
        1
176
     1
 90
        1
176
     1
 90
        2
176
     1
 40
0.6
176
     1
 40
30.0
176
     1
 62
     7
420
 16777215
176
     1
 90
        0
176
     1
 90
        0
176
     1
 62
     7
176
     1
 62
   257
176
     1
 90
        1
176
     1
 90
        1
176
     1
 40
1.0
176
     1
 90
        8
176
     1
 62
     7
176
     1
 40
1.0
176
     1
 90
        1
176
     1
 90
        6
176
     1
 90
        2
176
     1
 62
     7
176
     1
 90
        5
176
     1
 90
        0
176
     1
 90
        0
176
     1
290
     0
176
     1
 90
       13
176
     1
 40
0.0
176
     1
 90
        0
176
     1
290
     0
176
     1
290
     1
176
     1
290
     1
176
     1
290
     0
176
     1
290
     0
176
     1
290
     0
176
     1
290
     0
176
     1
290
     0
176
     1
290
     0
176
     1
 90
       50
176
     1
 40
0.0
176
     1
 40
1.0
176
     1
 90
        0
176
     1
 62
    18
420
        0
176
     1
 90
       50
176
     1
 90
        3
176
     1
 62
     5
420
      255
176
     1
290
     0
176
     1
 90
       50
176
     1
 90
       50
176
     1
 90
       50
176
     1
290
     0
176
     1
 90
       50
176
     1
 62
   256
176
     0
 40
1.0
176
     0
 90
        2
176
     1
  1
strokes_ogs.tif
176
     1
290
     0
176
     1
 40
1.0
176
     1
 40
1.0
176
     1
  0
VISUALSTYLE
  5
101001E
102
{ACAD_REACTORS
330
101001C
102
}
330
101001C
100
AcDbVisualStyle
  2

 70
     1
177
     3
291
     1
 70
    58
 90
        2
176
     1
 90
        1
176
     1
 90
        1
176
     1
 90
        2
176
     1
 40
0.6
176
     1
 40
30.0
176
     1
 62
     7
420
 16777215
176
     1
 90
        1
176
     1
 90
        0
176
     1
 62
     7
176
     1
 62
   257
176
     1
 90
        1
176
     1
 90
        1
176
     1
 40
1.0
176
     1
 90
        0
176
     1
 62
   257
176
     1
 40
1.0
176
     1
 90
        1
176
     1
 90
        6
176
     1
 90
        2
176
     1
 62
     7
176
     1
 90
        5
176
     1
 90
        0
176
     1
 90
        0
176
     1
290
     0
176
     1
 90
       13
176
     1
 40
0.0
176
     1
 90
        0
176
     1
290
     0
176
     1
290
     1
176
     1
290
     1
176
     1
290
     0
176
     1
290
     0
176
     1
290
     0
176
     1
290
     0
176
     1
290
     0
176
     1
290
     0
176
     1
 90
       50
176
     1
 40
0.0
176
     1
 40
1.0
176
     1
 90
        0
176
     1
 62
    18
420
        0
176
     1
 90
       50
176
     1
 90
        3
176
     1
 62
     5
420
      255
176
     1
290
     0
176
     1
 90
       50
176
     1
 90
       50
176
     1
 90
       50
176
     1
290
     0
176
     1
 90
       50
176
     1
 62
   256
176
     0
 40
1.0
176
     0
 90
        2
176
     1
  1
strokes_ogs.tif
176
     1
290
     0
176
     1
 40
1.0
176
     1
 40
1.0
176
     1
  0
VISUALSTYLE
  5
101001F
102
{ACAD_REACTORS
330
101001C
102
}
330
101001C
100
AcDbVisualStyle
  2

 70
     2
177
     3
291
     1
 70
    58
 90
        2
176
     1
 90
        2
176
     1
 90
        1
176
     1
 90
        2
176
     1
 40
0.6
176
     1
 40
30.0
176
     1
 62
     7
420
 16777215
176
     1
 90
        0
176
     1
 90
        0
176
     1
 62
     7
176
     1
 62
   257
176
     1
 90
        1
176
     1
 90
        1
176
     1
 40
1.0
176
     1
 90
        0
176
     1
 62
     7
176
     1
 40
1.0
176
     1
 90
        1
176
     1
 90
        6
176
     1
 90
        2
176
     1
 62
     7
176
     1
 90
        5
176
     1
 90
        0
176
     1
 90
        0
176
     1
290
     0
176
     1
 90
       13
176
     1
 40
0.0
176
     1
 90
        0
176
     1
290
     0
176
     1
290
     1
176
     1
290
     1
176
     1
290
     0
176
     1
290
     0
176
     1
290
     0
176
     1
290
     0
176
     1
290
     0
176
     1
290
     0
176
     1
 90
       50
176
     1
 40
0.0
176
     1
 40
1.0
176
     1
 90
        0
176
     1
 62
    18
420
        0
176
     1
 90
       50
176
     1
 90
        3
176
     1
 62
     5
420
      255
176
     1
290
     0
176
     1
 90
       50
176
     1
 90
       50
176
     1
 90
       50
176
     1
290
     0
176
     1
 90
       50
176
     1
 62
   256
176
     0
 40
1.0
176
     0
 90
        2
176
     1
  1
strokes_ogs.tif
176
     1
290
     0
176
     1
 40
1.0
176
     1
 40
1.0
176
     1
  0
VISUALSTYLE
  5
1010020
102
{ACAD_REACTORS
330
101001C
102
}
330
101001C
100
AcDbVisualStyle
  2

 70
     3
177
     3
291
     1
 70
    58
 90
        2
176
     1
 90
        2
176
     1
 90
        1
176
     1
 90
        2
176
     1
 40
0.6
176
     1
 40
30.0
176
     1
 62
     7
420
 16777215
176
     1
 90
        1
176
     1
 90
        0
176
     1
 62
     7
176
     1
 62
   257
176
     1
 90
        1
176
     1
 90
        1
176
     1
 40
1.0
176
     1
 90
        0
176
     1
 62
   257
176
     1
 40
1.0
176
     1
 90
        1
176
     1
 90
        6
176
     1
 90
        2
176
     1
 62
     7
176
     1
 90
        5
176
     1
 90
        0
176
     1
 90
        0
176
     1
290
     0
176
     1
 90
       13
176
     1
 40
0.0
176
     1
 90
        0
176
     1
290
     0
176
     1
290
     1
176
     1
290
     1
176
     1
290
     0
176
     1
290
     0
176
     1
290
     0
176
     1
290
     0
176
     1
290
     0
176
     1
290
     0
176
     1
 90
       50
176
     1
 40
0.0
176
     1
 40
1.0
176
     1
 90
        0
176
     1
 62
    18
420
        0
176
     1
 90
       50
176
     1
 90
        3
176
     1
 62
     5
420
      255
176
     1
290
     0
176
     1
 90
       50
176
     1
 90
       50
176
     1
 90
       50
176
     1
290
     0
176
     1
 90
       50
176
     1
 62
   256
176
     0
 40
1.0
176
     0
 90
        2
176
     1
  1
strokes_ogs.tif
176
     1
290
     0
176
     1
 40
1.0
176
     1
 40
1.0
176
     1
  0
VISUALSTYLE
  5
1010024
102
{ACAD_REACTORS
330
101001C
102
}
330
101001C
100
AcDbVisualStyle
  2

 70
     6
177
     3
291
     0
 70
    58
 90
        1
176
     1
 90
        2
176
     1
 90
        2
176
     1
 90
        0
176
     1
 40
0.6
176
     1
 40
30.0
176
     1
 62
     7
420
 16777215
176
     1
 90
        2
176
     1
 90
        2
176
     1
 62
     7
176
     1
 62
   257
176
     1
 90
        2
176
     1
 90
        1
176
     1
 40
40.0
176
     1
 90
        0
176
     1
 62
   257
176
     1
 40
1.0
176
     1
 90
        1
176
     1
 90
        6
176
     1
 90
        2
176
     1
 62
     7
176
     1
 90
        3
176
     1
 90
        0
176
     1
 90
        0
176
     1
290
     0
176
     1
 90
        1
176
     1
 40
0.0
176
     1
 90
        0
176
     1
290
     0
176
     1
290
     1
176
     1
290
     1
176
     1
290
     0
176
     1
290
     0
176
     1
290
     0
176
     1
290
     0
176
     1
290
     0
176
     1
290
     0
176
     1
 90
       50
176
     1
 40
0.0
176
     1
 40
1.0
176
     1
 90
        0
176
     1
 62
    18
420
        0
176
     1
 90
       50
176
     1
 90
        3
176
     1
 62
     5
420
      255
176
     1
290
     0
176
     1
 90
       50
176
     1
 90
       50
176
     1
 90
       50
176
     1
290
     0
176
     1
 90
       50
176
     1
 62
   256
176
     0
 40
1.0
176
     0
 90
        2
176
     1
  1
strokes_ogs.tif
176
     1
290
     0
176
     1
 40
1.0
176
     1
 40
1.0
176
     1
  0
VISUALSTYLE
  5
1010032
102
{ACAD_REACTORS
330
101001C
102
}
330
101001C
100
AcDbVisualStyle
  2

 70
    20
177
     3
291
     1
 70
    58
 90
        2
176
     0
 90
        2
176
     0
 90
        0
176
     0
 90
        0
176
     0
 40
0.6
176
     0
 40
30.0
176
     0
 62
     7
420
 16777215
176
     0
 90
        1
176
     0
 90
        4
176
     0
 62
     7
176
     0
 62
   257
176
     0
 90
        1
176
     0
 90
        1
176
     0
 40
1.0
176
     0
 90
       10
176
     2
 62
     7
176
     0
 40
1.0
176
     0
 90
        1
176
     0
 90
        6
176
     0
 90
        2
176
     0
 62
     7
176
     0
 90
        5
176
     0
 90
        0
176
     0
 90
        0
176
     0
290
     0
176
     0
 90
        1
176
     0
 40
0.0
176
     0
 90
        0
176
     0
290
     0
176
     1
290
     1
176
     1
290
     1
176
     1
290
     0
176
     1
290
     0
176
     1
290
     0
176
     1
290
     0
176
     1
290
     0
176
     1
290
     0
176
     1
 90
       50
176
     0
 40
0.0
176
     0
 40
1.0
176
     0
 90
        0
176
     0
 62
    18
420
        0
176
     0
 90
       50
176
     0
 90
        3
176
     0
 62
     5
420
      255
176
     0
290
     0
176
     1
 90
       50
176
     0
 90
       50
176
     0
 90
       50
176
     0
290
     0
176
     1
 90
       50
176
     0
 62
   256
176
     0
 40
1.0
176
     0
 90
        2
176
     0
  1
strokes_ogs.tif
176
     0
290
     0
176
     1
 40
1.0
176
     0
 40
1.0
176
     0
  0
VISUALSTYLE
  5
101002A
102
{ACAD_REACTORS
330
101001C
102
}
330
101001C
100
AcDbVisualStyle
  2

 70
    14
177
     3
291
     1
 70
    58
 90
        2
176
     1
 90
        2
176
     1
 90
        0
176
     1
 90
        0
176
     1
 40
0.6
176
     1
 40
30.0
176
     1
 62
     7
420
 16777215
176
     1
 90
        1
176
     1
 90
        4
176
     1
 62
     7
176
     1
 62
   257
176
     1
 90
        7
176
     1
 90
        7
176
     1
 40
1.0
176
     1
 90
        8
176
     1
 62
     7
176
     1
 40
1.0
176
     1
 90
        1
176
     1
 90
        6
176
     1
 90
        2
176
     1
 62
     7
176
     1
 90
        5
176
     1
 90
        0
176
     1
 90
        0
176
     1
290
     0
176
     1
 90
        1
176
     1
 40
0.0
176
     1
 90
        0
176
     1
290
     0
176
     1
290
     1
176
     1
290
     1
176
     1
290
     0
176
     1
290
     0
176
     1
290
     0
176
     1
290
     0
176
     1
290
     0
176
     1
290
     0
176
     1
 90
       50
176
     1
 40
0.0
176
     1
 40
1.0
176
     1
 90
        0
176
     1
 62
    18
420
        0
176
     1
 90
       50
176
     1
 90
        3
176
     1
 62
     5
420
      255
176
     1
290
     0
176
     1
 90
       50
176
     1
 90
       50
176
     1
 90
       50
176
     1
290
     0
176
     1
 90
       50
176
     1
 62
   256
176
     0
 40
1.0
176
     0
 90
        2
176
     1
  1
strokes_ogs.tif
176
     1
290
     0
176
     1
 40
1.0
176
     1
 40
1.0
176
     1
  0
VISUALSTYLE
  5
1010033
102
{ACAD_REACTORS
330
101001C
102
}
330
101001C
100
AcDbVisualStyle
  2

 70
    21
177
     3
291
     1
 70
    58
 90
        2
176
     0
 90
        2
176
     0
 90
        0
176
     0
 90
        0
176
     0
 40
0.6
176
     0
 40
30.0
176
     0
 62
     7
420
 16777215
176
     0
 90
        1
176
     0
 90
        4
176
     0
 62
     7
176
     0
 62
   257
176
     0
 90
        1
176
     0
 90
        1
176
     0
 40
1.0
176
     0
 90
        9
176
     2
 62
     7
176
     0
 40
1.0
176
     0
 90
        1
176
     0
 90
        6
176
     0
 90
        2
176
     0
 62
     7
176
     0
 90
        5
176
     0
 90
        0
176
     0
 90
        0
176
     0
290
     0
176
     0
 90
        1
176
     0
 40
0.0
176
     0
 90
        0
176
     0
290
     0
176
     1
290
     1
176
     1
290
     1
176
     1
290
     0
176
     1
290
     0
176
     1
290
     0
176
     1
290
     0
176
     1
290
     0
176
     1
290
     0
176
     1
 90
       50
176
     0
 40
0.0
176
     0
 40
1.0
176
     0
 90
        0
176
     0
 62
    18
420
        0
176
     0
 90
       50
176
     0
 90
        3
176
     0
 62
     5
420
      255
176
     0
290
     0
176
     1
 90
       50
176
     0
 90
       50
176
     0
 90
       50
176
     0
290
     0
176
     1
 90
       50
176
     0
 62
   256
176
     0
 40
1.0
176
     0
 90
        2
176
     0
  1
strokes_ogs.tif
176
     0
290
     0
176
     1
 40
1.0
176
     0
 40
1.0
176
     0
  0
VISUALSTYLE
  5
1010026
102
{ACAD_REACTORS
330
101001C
102
}
330
101001C
100
AcDbVisualStyle
  2

 70
     8
177
     3
291
     0
 70
    58
 90
        2
176
     1
 90
        3
176
     1
 90
        0
176
     1
 90
        2
176
     1
 40
0.6
176
     1
 40
30.0
176
     1
 62
     7
420
 16777215
176
     1
 90
        0
176
     1
 90
        0
176
     1
 62
     7
176
     1
 62
   257
176
     1
 90
        1
176
     1
 90
        1
176
     1
 40
1.0
176
     1
 90
        8
176
     1
 62
   257
176
     1
 40
1.0
176
     1
 90
        1
176
     1
 90
        6
176
     1
 90
        2
176
     1
 62
     7
176
     1
 90
        3
176
     1
 90
        0
176
     1
 90
        0
176
     1
290
     0
176
     1
 90
       13
176
     1
 40
0.0
176
     1
 90
        0
176
     1
290
     0
176
     1
290
     1
176
     1
290
     1
176
     1
290
     0
176
     1
290
     0
176
     1
290
     0
176
     1
290
     0
176
     1
290
     0
176
     1
290
     0
176
     1
 90
       50
176
     1
 40
0.0
176
     1
 40
1.0
176
     1
 90
        0
176
     1
 62
    18
420
        0
176
     1
 90
       50
176
     1
 90
        3
176
     1
 62
     5
420
      255
176
     1
290
     0
176
     1
 90
       50
176
     1
 90
       50
176
     1
 90
       50
176
     1
290
     0
176
     1
 90
       50
176
     1
 62
   256
176
     0
 40
1.0
176
     0
 90
        2
176
     1
  1
strokes_ogs.tif
176
     1
290
     0
176
     1
 40
1.0
176
     1
 40
1.0
176
     1
  0
VISUALSTYLE
  5
1010031
102
{ACAD_REACTORS
330
101001C
102
}
330
101001C
100
AcDbVisualStyle
  2

 70
    27
177
     3
291
     0
 70
    58
 90
        2
176
     1
 90
        2
176
     1
 90
        1
176
     1
 90
        2
176
     1
 40
0.6
176
     1
 40
30.0
176
     1
 62
     7
420
 16777215
176
     1
 90
        0
176
     1
 90
        4
176
     1
 62
     7
176
     1
 62
   257
176
     1
 90
        1
176
     1
 90
        1
176
     1
 40
1.0
176
     1
 90
        8
176
     1
 62
   257
176
     1
 40
1.0
176
     1
 90
        1
176
     1
 90
        6
176
     1
 90
        2
176
     1
 62
     8
420
  7895160
176
     1
 90
        3
176
     1
 90
        0
176
     1
 90
        0
176
     1
290
     0
176
     1
 90
        5
176
     1
 40
0.0
176
     1
 90
        0
176
     1
290
     0
176
     1
290
     1
176
     1
290
     1
176
     1
290
     0
176
     1
290
     0
176
     1
290
     0
176
     1
290
     0
176
     1
290
     0
176
     1
290
     0
176
     1
 90
       50
176
     1
 40
0.0
176
     1
 40
1.0
176
     1
 90
        0
176
     1
 62
    18
420
        0
176
     1
 90
       50
176
     1
 90
        3
176
     1
 62
     5
420
      255
176
     1
290
     0
176
     1
 90
       50
176
     1
 90
       50
176
     1
 90
       50
176
     1
290
     0
176
     1
 90
       50
176
     1
 62
   256
176
     0
 40
1.0
176
     0
 90
        2
176
     1
  1
strokes_ogs.tif
176
     1
290
     0
176
     1
 40
1.0
176
     1
 40
1.0
176
     1
  0
VISUALSTYLE
  5
1010030
102
{ACAD_REACTORS
330
101001C
102
}
330
101001C
100
AcDbVisualStyle
  2

 70
    26
177
     3
291
     0
 70
    58
 90
        2
176
     1
 90
        2
176
     1
 90
        1
176
     1
 90
        2
176
     1
 40
0.6
176
     1
 40
30.0
176
     1
 62
     7
420
 16777215
176
     1
 90
        1
176
     1
 90
        2
176
     1
 62
     7
176
     1
 62
   257
176
     1
 90
        2
176
     1
 90
        1
176
     1
 40
1.0
176
     1
 90
        8
176
     1
 62
   257
176
     1
 40
1.0
176
     1
 90
        1
176
     1
 90
        6
176
     1
 90
        2
176
     1
 62
     7
176
     1
 90
        3
176
     1
 90
        0
176
     1
 90
        0
176
     1
290
     0
176
     1
 90
        5
176
     1
 40
0.0
176
     1
 90
        0
176
     1
290
     0
176
     1
290
     1
176
     1
290
     1
176
     1
290
     0
176
     1
290
     0
176
     1
290
     0
176
     1
290
     0
176
     1
290
     0
176
     1
290
     0
176
     1
 90
       50
176
     1
 40
0.0
176
     1
 40
1.0
176
     1
 90
        0
176
     1
 62
    18
420
        0
176
     1
 90
       50
176
     1
 90
        3
176
     1
 62
     5
420
      255
176
     1
290
     0
176
     1
 90
       50
176
     1
 90
       50
176
     1
 90
       50
176
     1
290
     0
176
     1
 90
       50
176
     1
 62
   256
176
     0
 40
1.0
176
     0
 90
        2
176
     1
  1
strokes_ogs.tif
176
     1
290
     0
176
     1
 40
1.0
176
     1
 40
1.0
176
     1
  0
VISUALSTYLE
  5
101002D
102
{ACAD_REACTORS
330
101001C
102
}
330
101001C
100
AcDbVisualStyle
  2

 70
    23
177
     3
291
     0
 70
    58
 90
        2
176
     1
 90
        2
176
     1
 90
        3
176
     1
 90
        0
176
     1
 40
0.6
176
     1
 40
30.0
176
     1
 62
     7
420
 16777215
176
     1
 90
        2
176
     1
 90
        2
176
     1
 62
     7
176
     1
 62
     7
176
     1
 90
        1
176
     1
 90
        1
176
     1
 40
40.0
176
     1
 90
        8
176
     1
 62
     7
176
     1
 40
1.0
176
     1
 90
        1
176
     1
 90
        6
176
     1
 90
        2
176
     1
 62
     7
176
     1
 90
        3
176
     1
 90
        0
176
     1
 90
        0
176
     1
290
     0
176
     1
 90
        1
176
     1
 40
0.0
176
     1
 90
        0
176
     1
290
     0
176
     1
290
     1
176
     1
290
     1
176
     1
290
     0
176
     1
290
     0
176
     1
290
     0
176
     1
290
     0
176
     1
290
     0
176
     1
290
     0
176
     1
 90
       50
176
     1
 40
0.0
176
     1
 40
1.0
176
     1
 90
        0
176
     1
 62
    18
420
        0
176
     1
 90
       50
176
     1
 90
        3
176
     1
 62
     5
420
      255
176
     1
290
     0
176
     1
 90
       50
176
     1
 90
       50
176
     1
 90
       50
176
     1
290
     0
176
     1
 90
       50
176
     1
 62
   256
176
     0
 40
1.0
176
     0
 90
        2
176
     1
  1
strokes_ogs.tif
176
     1
290
     0
176
     1
 40
1.0
176
     1
 40
1.0
176
     1
  0
VISUALSTYLE
  5
101002E
102
{ACAD_REACTORS
330
101001C
102
}
330
101001C
100
AcDbVisualStyle
  2

 70
    24
177
     3
291
     0
 70
    58
 90
        1
176
     1
 90
        2
176
     1
 90
        2
176
     1
 90
        0
176
     1
 40
0.6
176
     1
 40
30.0
176
     1
 62
     7
420
 16777215
176
     1
 90
        2
176
     1
 90
        2
176
     1
 62
     7
176
     1
 62
     7
176
     1
 90
        1
176
     1
 90
        1
176
     1
 40
40.0
176
     1
 90
       11
176
     1
 62
     7
176
     1
 40
1.0
176
     1
 90
        1
176
     1
 90
        6
176
     1
 90
        2
176
     1
 62
     7
176
     1
 90
        6
176
     1
 90
        0
176
     1
 90
        0
176
     1
290
     0
176
     1
 90
        1
176
     1
 40
0.0
176
     1
 90
        0
176
     1
290
     0
176
     1
290
     1
176
     1
290
     1
176
     1
290
     0
176
     1
290
     0
176
     1
290
     0
176
     1
290
     0
176
     1
290
     0
176
     1
290
     0
176
     1
 90
       50
176
     1
 40
0.0
176
     1
 40
1.0
176
     1
 90
        0
176
     1
 62
    18
420
        0
176
     1
 90
       50
176
     1
 90
        3
176
     1
 62
     5
420
      255
176
     1
290
     0
176
     1
 90
       50
176
     1
 90
       50
176
     1
 90
       50
176
     1
290
     0
176
     1
 90
       50
176
     1
 62
   256
176
     0
 40
1.0
176
     0
 90
        2
176
     1
  1
strokes_ogs.tif
176
     1
290
     0
176
     1
 40
1.0
176
     1
 40
1.0
176
     1
  0
VISUALSTYLE
  5
1010029
102
{ACAD_REACTORS
330
101001C
102
}
330
101001C
100
AcDbVisualStyle
  2

 70
    13
177
     3
291
     1
 70
    58
 90
        2
176
     1
 90
        2
176
     1
 90
        0
176
     1
 90
        0
176
     1
 40
0.6
176
     1
 40
30.0
176
     1
 62
     7
420
 16777215
176
     1
 90
        1
176
     1
 90
        4
176
     1
 62
     7
176
     1
 62
   257
176
     1
 90
        1
176
     1
 90
        1
176
     1
 40
1.0
176
     1
 90
       12
176
     1
 62
     7
176
     1
 40
1.0
176
     1
 90
        1
176
     1
 90
        6
176
     1
 90
        2
176
     1
 62
     7
176
     1
 90
        5
176
     1
 90
        0
176
     1
 90
        0
176
     1
290
     0
176
     1
 90
        1
176
     1
 40
0.0
176
     1
 90
        0
176
     1
290
     0
176
     1
290
     1
176
     1
290
     1
176
     1
290
     0
176
     1
290
     0
176
     1
290
     0
176
     1
290
     0
176
     1
290
     0
176
     1
290
     0
176
     1
 90
       50
176
     1
 40
0.0
176
     1
 40
1.0
176
     1
 90
        0
176
     1
 62
    18
420
        0
176
     1
 90
       50
176
     1
 90
        3
176
     1
 62
     5
420
      255
176
     1
290
     0
176
     1
 90
       50
176
     1
 90
       50
176
     1
 90
       50
176
     1
290
     0
176
     1
 90
       50
176
     1
 62
   256
176
     0
 40
1.0
176
     0
 90
        2
176
     1
  1
strokes_ogs.tif
176
     1
290
     0
176
     1
 40
1.0
176
     1
 40
1.0
176
     1
  0
VISUALSTYLE
  5
1010023
102
{ACAD_REACTORS
330
101001C
102
}
330
101001C
100
AcDbVisualStyle
  2

 70
     5
177
     3
291
     0
 70
    58
 90
        0
176
     1
 90
        2
176
     1
 90
        0
176
     1
 90
        0
176
     1
 40
0.6
176
     1
 40
30.0
176
     1
 62
     7
420
 16777215
176
     1
 90
        1
176
     1
 90
        4
176
     1
 62
     7
176
     1
 62
   257
176
     1
 90
        1
176
     1
 90
        1
176
     1
 40
1.0
176
     1
 90
        0
176
     1
 62
   257
176
     1
 40
1.0
176
     1
 90
        1
176
     1
 90
        6
176
     1
 90
        2
176
     1
 62
     7
176
     1
 90
        3
176
     1
 90
        0
176
     1
 90
        0
176
     1
290
     0
176
     1
 90
        1
176
     1
 40
0.0
176
     1
 90
        0
176
     1
290
     0
176
     1
290
     1
176
     1
290
     1
176
     1
290
     0
176
     1
290
     0
176
     1
290
     0
176
     1
290
     0
176
     1
290
     0
176
     1
290
     0
176
     1
 90
       50
176
     1
 40
0.0
176
     1
 40
1.0
176
     1
 90
        0
176
     1
 62
    18
420
        0
176
     1
 90
       50
176
     1
 90
        3
176
     1
 62
     5
420
      255
176
     1
290
     0
176
     1
 90
       50
176
     1
 90
       50
176
     1
 90
       50
176
     1
290
     0
176
     1
 90
       50
176
     1
 62
   256
176
     0
 40
1.0
176
     0
 90
        2
176
     1
  1
strokes_ogs.tif
176
     1
290
     0
176
     1
 40
1.0
176
     1
 40
1.0
176
     1
  0
VISUALSTYLE
  5
101002F
102
{ACAD_REACTORS
330
101001C
102
}
330
101001C
100
AcDbVisualStyle
  2

 70
    25
177
     3
291
     0
 70
    58
 90
        2
176
     1
 90
        2
176
     1
 90
        1
176
     1
 90
        1
176
     1
 40
0.5
176
     1
 40
30.0
176
     1
 62
     7
420
 16777215
176
     1
 90
        1
176
     1
 90
        0
176
     1
 62
     7
176
     1
 62
   257
176
     1
 90
        1
176
     1
 90
        1
176
     1
 40
1.0
176
     1
 90
        8
176
     1
 62
     7
176
     1
 40
1.0
176
     1
 90
        1
176
     1
 90
        6
176
     1
 90
        2
176
     1
 62
     7
176
     1
 90
        3
176
     1
 90
        0
176
     1
 90
        0
176
     1
290
     0
176
     1
 90
       13
176
     1
 40
0.0
176
     1
 90
        0
176
     1
290
     0
176
     1
290
     1
176
     1
290
     1
176
     1
290
     0
176
     1
290
     0
176
     1
290
     0
176
     1
290
     0
176
     1
290
     0
176
     1
290
     0
176
     1
 90
       50
176
     1
 40
0.0
176
     1
 40
1.0
176
     1
 90
        0
176
     1
 62
    18
420
        0
176
     1
 90
       50
176
     1
 90
        3
176
     1
 62
     5
420
      255
176
     1
290
     0
176
     1
 90
       50
176
     1
 90
       50
176
     1
 90
       50
176
     1
290
     0
176
     1
 90
       50
176
     1
 62
   256
176
     0
 40
1.0
176
     0
 90
        2
176
     1
  1
strokes_ogs.tif
176
     1
290
     0
176
     1
 40
1.0
176
     1
 40
1.0
176
     1
  0
DICTIONARYVAR
  5
1012912
102
{ACAD_REACTORS
330
10122A7
102
}
330
10122A7
100
DictionaryVariables
280
     0
  1
1:1
  0
DICTIONARYVAR
  5
101290E
102
{ACAD_REACTORS
330
10122A7
102
}
330
10122A7
100
DictionaryVariables
280
     0
  1
STANDARD
  0
DICTIONARYVAR
  5
101290D
102
{ACAD_REACTORS
330
10122A7
102
}
330
10122A7
100
DictionaryVariables
280
     0
  1
STANDARD
  0
DICTIONARYVAR
  5
101290F
102
{ACAD_REACTORS
330
10122A7
102
}
330
10122A7
100
DictionaryVariables
280
     0
  1
Metric50
  0
DICTIONARYVAR
  5
1012910
102
{ACAD_REACTORS
330
10122A7
102
}
330
10122A7
100
DictionaryVariables
280
     0
  1
Metric50
  0
DICTIONARYVAR
  5
10122A8
102
{ACAD_REACTORS
330
10122A7
102
}
330
10122A7
100
DictionaryVariables
280
     0
  1
VITE
  0
DICTIONARYVAR
  5
1012F7C
102
{ACAD_REACTORS
330
10122A7
102
}
330
10122A7
100
DictionaryVariables
280
     0
  1
BYLAYER
  0
DICTIONARYVAR
  5
1012F7B
102
{ACAD_REACTORS
330
10122A7
102
}
330
10122A7
100
DictionaryVariables
280
     0
  1
ByLayer
  0
DICTIONARYVAR
  5
1012914
102
{ACAD_REACTORS
330
10122A7
102
}
330
10122A7
100
DictionaryVariables
280
     0
  1
1
  0
DICTIONARYVAR
  5
1012915
102
{ACAD_REACTORS
330
10122A7
102
}
330
10122A7
100
DictionaryVariables
280
     0
  1
15
  0
DICTIONARYVAR
  5
1012913
102
{ACAD_REACTORS
330
10122A7
102
}
330
10122A7
100
DictionaryVariables
280
     0
  1
0
  0
DICTIONARYVAR
  5
1012911
102
{ACAD_REACTORS
330
10122A7
102
}
330
10122A7
100
DictionaryVariables
280
     0
  1
0
  0
DICTIONARYVAR
  5
1014D2D
102
{ACAD_REACTORS
330
10122A7
102
}
330
10122A7
100
DictionaryVariables
280
     0
  1
2
  0
DICTIONARY
  5
1014D6A
330
101004F
100
AcDbDictionary
280
     1
281
     1
  3
ACAD_XREC_ROUNDTRIP
360
1015D45
  0
DICTIONARY
  5
101000D
330
101000C
100
AcDbDictionary
280
     1
281
     1
  3
ACAD_XREC_ROUNDTRIP
360
1014CF0
  3
BUMPTILE
360
101000F
  3
DIFFUSETILE
360
101000E
  3
OPACITYTILE
360
1010012
  3
REFLECTIONTILE
360
1010011
  3
REFRACTIONTILE
360
1010013
  3
SPECULARTILE
360
1010010
  0
DICTIONARY
  5
1010005
330
1010004
100
AcDbDictionary
280
     1
281
     1
  3
ACAD_XREC_ROUNDTRIP
360
1014CEF
  3
BUMPTILE
360
1010007
  3
DIFFUSETILE
360
1010006
  3
OPACITYTILE
360
101000A
  3
REFLECTIONTILE
360
1010009
  3
REFRACTIONTILE
360
101000B
  3
SPECULARTILE
360
1010008
  0
DICTIONARY
  5
1010015
330
1010014
100
AcDbDictionary
280
     1
281
     1
  3
ACAD_XREC_ROUNDTRIP
360
1014CF1
  3
BUMPTILE
360
1010017
  3
DIFFUSETILE
360
1010016
  3
FBXASSET
360
1010073
  3
OPACITYTILE
360
101001A
  3
REFLECTIONTILE
360
1010019
  3
REFRACTIONTILE
360
101001B
  3
SPECULARTILE
360
1010018
  0
DICTIONARY
  5
1014D68
330
101004D
100
AcDbDictionary
280
     1
281
     1
  3
ACAD_XREC_ROUNDTRIP
360
1015D44
  0
DICTIONARY
  5
1014CE2
330
1010037
100
AcDbDictionary
280
     1
281
     1
  3
ACAD_ROUNDTRIP_2008_TABLESTYLE_CELLSTYLEMAP
360
1015D43
  0
XRECORD
  5
1015D45
102
{ACAD_REACTORS
330
1014D6A
102
}
330
1014D6A
100
AcDbXrecord
280
     1
102
DISPLAYNAME
  1
Metric50
102
FLAGS
 90
        0
  0
XRECORD
  5
1014CF0
102
{ACAD_REACTORS
330
101000D
102
}
330
101000D
100
AcDbXrecord
280
     1
102
MATERIAL
148
0.0
149
0.0
149
0.0
 93
        0
 94
      127
282
     0
 72
     0
 77
     0
171
     0
175
     0
179
     0
273
     0
  0
XRECORD
  5
101000F
102
{ACAD_REACTORS
330
101000D
102
}
330
101000D
100
AcDbXrecord
280
     1
270
     1
271
     1
  0
XRECORD
  5
101000E
102
{ACAD_REACTORS
330
101000D
102
}
330
101000D
100
AcDbXrecord
280
     1
270
     1
271
     1
  0
XRECORD
  5
1010012
102
{ACAD_REACTORS
330
101000D
102
}
330
101000D
100
AcDbXrecord
280
     1
270
     1
271
     1
  0
XRECORD
  5
1010011
102
{ACAD_REACTORS
330
101000D
102
}
330
101000D
100
AcDbXrecord
280
     1
270
     1
271
     1
  0
XRECORD
  5
1010013
102
{ACAD_REACTORS
330
101000D
102
}
330
101000D
100
AcDbXrecord
280
     1
270
     1
271
     1
  0
XRECORD
  5
1010010
102
{ACAD_REACTORS
330
101000D
102
}
330
101000D
100
AcDbXrecord
280
     1
270
     1
271
     1
  0
XRECORD
  5
1014CEF
102
{ACAD_REACTORS
330
1010005
102
}
330
1010005
100
AcDbXrecord
280
     1
102
MATERIAL
148
0.0
149
0.0
149
0.0
 93
        0
 94
      127
282
     0
 72
     0
 77
     0
171
     0
175
     0
179
     0
273
     0
  0
XRECORD
  5
1010007
102
{ACAD_REACTORS
330
1010005
102
}
330
1010005
100
AcDbXrecord
280
     1
270
     1
271
     1
  0
XRECORD
  5
1010006
102
{ACAD_REACTORS
330
1010005
102
}
330
1010005
100
AcDbXrecord
280
     1
270
     1
271
     1
  0
XRECORD
  5
101000A
102
{ACAD_REACTORS
330
1010005
102
}
330
1010005
100
AcDbXrecord
280
     1
270
     1
271
     1
  0
XRECORD
  5
1010009
102
{ACAD_REACTORS
330
1010005
102
}
330
1010005
100
AcDbXrecord
280
     1
270
     1
271
     1
  0
XRECORD
  5
101000B
102
{ACAD_REACTORS
330
1010005
102
}
330
1010005
100
AcDbXrecord
280
     1
270
     1
271
     1
  0
XRECORD
  5
1010008
102
{ACAD_REACTORS
330
1010005
102
}
330
1010005
100
AcDbXrecord
280
     1
270
     1
271
     1
  0
XRECORD
  5
1014CF1
102
{ACAD_REACTORS
330
1010015
102
}
330
1010015
100
AcDbXrecord
280
     1
102
MATERIAL
148
0.0
149
0.0
149
0.0
 93
        0
 94
      127
282
     0
 72
     0
 77
     0
171
     0
175
     0
179
     0
273
     0
  0
XRECORD
  5
1010017
102
{ACAD_REACTORS
330
1010015
102
}
330
1010015
100
AcDbXrecord
280
     1
270
     1
271
     1
  0
XRECORD
  5
1010016
102
{ACAD_REACTORS
330
1010015
102
}
330
1010015
100
AcDbXrecord
280
     1
270
     1
271
     1
  0
XRECORD
  5
1010073
102
{ACAD_REACTORS
330
1010015
102
}
330
1010015
100
AcDbXrecord
280
     1
 70
     1
 90
652598616
 71
     1
  1
FC937E84-0D6A-4901-BB2D-6F562155DFF7
311
504B0304140006080800C8508F50F50EF02011010000A80100004F00000036333436443936332D433437312D343336412D414433332D4332344642374443363331342F4173736574446174612F446566696E6974696F6E4974657261746F7250726F706572746965732E62696E7550B14EC33010350C20903A20B1B130B01A
311
C7B1E3244808123B6662811509B9C1B4416E52D589583BF265FD2D38972055204E7ABEBB77E7BBA7FB40087D8E0621DA03ACE19D80BFB3AD5D35F5633DB70B830E02E3BAA9711710D14AA65C160C4729AD302F238D4B2A639CC9BCCA2455B428E27DE83B0428FB6A06D78791F78DAFAD73A6B5DDE04F8018779C2F4C0FBB8C
311
BB0C9F8E100A6E0D403F051F26CDBE150591EF00F3B2BCBA31DEDBFE9A08C685CA05C392A71473260A5C280669CC75992A2918E5E4C1FA6E58D5D6132D73965619C791824E9E47149765ACB0D08988699228AD53D2CF87709AD32063DA9AC691888C129E97ED0CE83FB67BCBDDE22D2405E0EDF8694B6F26675BFFDFF37BCE
311
17504B0304140006080800C8508F50CCE6A3FAEC000000300200004500000036333436443936332D433437312D343336412D414433332D4332344642374443363331342F4173736574446174612F496E7374616E636550726F706572746965732E62696EEB606060F80F0540260323103700495E20ED9E9A975A94991C9C9C
311
919A9BA802147073B6343677B530D135703173D435B13430D475723272D1357333353332343575717333674768046931363471713532B5D435353131D635012AD375727372D13534373670367376B67474B5042A03DBCBA019D37FE8ABC6157B20CD04146B0062181F4C03F940F0C11EA29A8141C08141002C0426541C106C
311
AC2CA046088033B02A030AC2157C6006F21A8018AAF50194E6010A610250382264E08660284CD9E98021862280A91564B406929A0FF62C401E28B6F88038B83CB1243943D7A928312F25350524C341230800504B0304140006080800C8508F5088E57597CD3F0000904100006B00000036333436443936332D433437312D34
311
3336412D414433332D4332344642374443363331342F5265736F75726365732F46433933374538342D304436412D343930312D424232442D3646353632313535444646372F7468756D626E61696C2F302F67656E657269635F706E67355B773CD4FF1FBF73E71C0E67EF7576C9DEF3EC995D46C6A1EC5046649CBDF79E1929
311
42562825CE965D8A868C2842C8DE9FDFD1F7E7F138F7078FCF6B3F5FCFD7EBFDFEC41B196891913091804020321D6D7513FC77D8C5070EC3FFEE51B21F068154CC75D455CC028A3EA68992803810109FDDE5D5CEC5521B28A1B422BF80741695D5B529DA1C2D058AD2388BDA9F476F7C2CADC939304173DBF48A452BF8A700
311
C0C70C3D121C1AA15A5270C22E2B9E28763651F7DA0D12CE11077B2ECD0D560B5E3DE2368B1E65C5E1C87384A4CC5F2D9FB8BE39E9B77C753783A37998F5CEF1B4FEE553463245C9712270880DF339E0B882A6BA713D865F6F384C842D440934EF264F4A304F8DE4EEFA1E2BF5E2D91F5ADD9613D6E31DDB33ED31DB1D7916
311
CAF091286EA3D31B9CFECB78BB0060245B943C4C040119FF780A74DD308BA9D028678674EB5504ECF284EE814DAED07440BAF649BE4B55DA2890F4D73E2D489A59EE54FDB0A85B59F2F52C4858A02705C4815A792B0C4A996A2023ECB195073E115E3E3647F64243A8338F2000BCB58DA5692C7E7C3D413F963FEDF3CF00FB
311
B0F831A9D51360FECA43819F527B89FA260EB63C5DA676830AA3626A3693B23F1A17A0DFFCE3EE164E31B5365EDF0C89EF64D8E38AB0BA9A1117D7C3A0EC44F44F4023095E80BA610DE336D0F99593A88BFC5306E72DF98F7FD132ED95878DF2964EA7E43071359FD83B2BDF9C6B5BDF768F0F3C0FC351199526F53D9460A3
311
4511F75D1B63E488178569472C91A94497807A3FD4A390C6558F26D416365C3656DE6E769DA9D8FC73774E1709812842DD8EF96AED1960F79D21B395CDDFE6F92CB4EB962A4668C76990E2EF29798C8941D67DA50F4A5F947872460F1F6FDB794E8A29FD7AC0C0D6E0714339CE258FB17AE8535221E3464A10F29A0BE5EEEC
311
EFC5675926A89F49EB14E5711894F6586DB5754EB4D5DA9C6437EBA57DB97A24F8B8A8DB295FFD73266CF57E82694DF5166DDF93573AFE9C9C5EB05F8FEF8E89E0A8917B0B3724DB7BEBB53252581EFC3E38166BA131A3A5B42FE2AD00A769BBFA4458D2DE7822F8C4F63D0B8E21B285AE13325F3410A435C648C9D91FDEB1
311
09E73CEDA7BC796961AF79175E1A3CE4C5E8B0D009B0C9E29EFD98BC8E97554E3D8D838424E270F7685226E5AC268E021EDE3522D583E8F20C0BDE2959EF5BBFEEDAB32FE9A3ED0E39F211A86AA9DEBFC68182EDED132AB8BB794442D2D7EA9F4D8BFF52BC4D55BB165124EE90A42D101E67BBBB292FFB4F66DE5BF2300E44
311
546757DA7CEF8932BFC9F92A0707953491A55C5A5ACEDABD9FA1AEA01BAC3DC5A24E22E7C47213493996EFBC369D086ED9397C9BA6C7F9855C7BD5E15BFC8C53DB3D2A4C5901A57ACD2FBDF4D1676E95338B2C2BCE65FDA4C64F5FEFDC7D9CA5AA1FCF11E193F2FDABF0F4916BF13FB916A224380E6462A9815F2300DC49CC
311
4DF8D055CEF76462F4B7A7ACA7365C2707891370BC1D0AA6203C44CCAB47084FEC057F27FFCD57F89B8B9852459798A675C66BD7CE572CAF71FF7E6D7ECF7BF62CAB7B3F1107DCD04DC55A3F9961700286141C94A4F771FEB2BCDA2DDEE0CB0BAE402FF1DB0100F8E475DFFFC074DDB4498AB7D186A7654DDB1CB680D703D4
311
7CEB4E72F8CB13D86A4AA68116E26387B93FD6738779B34FEDB8E517EDF2BAF28D9BE93A1D3A164320E07D42E514725C29515FF361754213EDE06B079A2E99EB1CA82A02019EADEEB87B9AF005BD04BBCECB14AACD6B24EFBE482194A97DD32400685FF1FEF1544D1B14EFB1E7F08E6D2CD2AF52DE757F35F5E62332EE88EA
311
26417AD5C3E0E319D68F25414E6D672BD4522B278C57D18F0113921C71D96527E091F00CEB15AE23D24667369BD3CEFA10C7549D930890BA4366F4EBC55F01F746109F98ABCDD5A3EE06619C6AD78AB33E48E4C9BD21BF7478B385EC05C4F8987E2C1BFA0A60EBEDAA0AE0B015C2720ECE180FB6F2DEFBEB822D96338C9B63
311
822183BBF52FB664A7AE57003AABCE512BF77E7E31BDA2E739AC4C131657DDFE5225E900FB56CC01CDE808FA4A9C9DA16AC679656BB64796283D89812B8F91136AE18EE5EBBAF47A73BE3C153EB5D4CD491B4BFB4FE690A4CF9ABA08C0D8AA64220C438C96EA6CA80B58FE5761E697B3A292EB9FBDA502FA863E49FE694ADD
311
FFF9D62C520BDD1A22014147A0903A05B9B729F54272EF83931FEEC057BFF8C8055C279EAC5C0011804828734024F6CFA319C9CC6867C727184465CD9BB7ED386AFFD96B294A85E3802FAE47244602D8273615952B98C4F23F7EAE4463D9D638EEE374A20959E0FE519C4CFB0FBFE5DD80C2AA3F9DB961D1BDE57E67C9BB47
311
B77FDD74EE3094F5DBBE3EBC1FBDB7393F5116263009E2EFE1AF9A221B2AE234C902BF70E9F280ED23E73908361565964333A3F01D0B006AF32FB21AA1316744B489D5A198E85299241735BE559675130955C902A8ED761FC0DBE337A9F91919AF5CE32AF902ADF9AB2615E00E8A94586BA1A90839B61832FF1BFB76D2EFAD
311
E6DB1BA04CCAD3DA649E7E2A0219F592E22F2AD54847EEA8E42271011E9074F8F3DD9FBA6CDF88FFC9FC7E811AD1CA8F4557CE4AFC7BBEDCF0114A48689F20A584520C74DA8127124B767E2FB91A6B186246727BE63C9445BAE02088D58B8EFDC0F1072407CD9B89A13F6303B4A928F593AD489B58E6869325790ADC406036
311
C591729FE14021F94B7796BB11848D463536A092A26F077F94639F7CEEE2A724C66EC885F4A24F8B8A0AC321F8FD149BA529460FAA34E4663C02D41FDF80BCA222D42F0ABFF8490F4FA74C673807C2051D8E467B47B616072860069A9A303ABA9B319D58404461401B0A0F9BE5E1E151C14BC33B32ABE03DDE91708DFAEB15
311
E7C0D593C86BB7D7EC17BE56E57975F077BFD5525F3A1A361D584A75E08CF29FC7B44B2B3085014F3A5A14517377C3F6B8F37E59514C3B12F8AACDEDDA4DFC49BE5710101534CD6FB6DE15B50F11A09472AABA727F0C49D9CB906B158030065F48EB3625E010CEC1D511D0053474B11E6A4F01C0D6EF1BED3A944FDEC70E0D
311
DCDC756C86545910E0DAE3BE3AA9A404574C2995CD5CAF9549226BC94B4F4F0F5F9086F418F6B32346464610D8BC7391D3C3A3CCF04CFC1FB2A3A3170E369511868F14EEA4E5E438CC73DB1F3248AA94B6B2FF33B222FF3D1E7BF146CAD229770158063BCE4F5391964DF62F7E52A7BE0EEA829C9E13C4C147D6F93FE59E11
311
1DAB5E4594D6F3CD1AD375EE039930EFE5AF2BB2D41C83C7DABD8C659BAFBE8FAB392CA634F3D15C1D945DB4588D2B0824A4EC928AAC565557CA2F0DAA588CA5BE30B3A8004F7BF005E96CBF891D7F18112A3619FDF530DC8AA64954258E1811789B5189B49B4EB53F5F89F7D37523894F3EB57B373763C91E502F52CC99EB
311
7BDDF933FC324C4FFC2561DFFA7339FAFDD0A4BFBE6D3A8FF9ED1FC49898139864602458968913181918F719CCF5A68B2EE9C1FF050E34E63107003B8120FA982C21B30A874E4F5E4B38D5A8290C4B8D9BE48A0BE31EA995BDC37AC6DE90BA17D259DEF53605D55922FEB1855D915B659FBEB350EE0DFB2F9F766E1C84CC89
311
64B75D08667445EAB966015F63A18A9E0A325C1B3DC628C0D3CB60F767FA93CC65F25458BD23C3B312716E5F40E5858AC06EBA9AB14F95DB99147B832069201541D09A0D856E12C629CF32683760EE855537D1901988D5EBC156676C7DD51D7207CF3267AF1D76C2AD867315E44618015313A98B19941C696FED3461CAA9B5
311
415F918556D7802EDACEFD6B2E45853A9735DFC9DBF7E440F9319F8B6805A973BCCDC76C069A9144E51F187EDCC12FC31B5DEAAF0A76137199B106EC84ADA6B6EE697D4E6A96E007417F4E880E8B1E89B4BCE9D81EF611E2ED8F0C1A6C25F620FAFAAB656A7C42D464880E8AFAB0E0FC8EA38CA9A8AEEAEE3E4648BA468027
311
0A89743CDD3E6C6CBF34B7B640EFA285ABC7EA0A1E28F3CC963D114A80123EE66D0AF7D5380EB41909B605AB4765B709B808590458157E69BA1378FEC4B48CAF6A730E3BE3C5EF2DD1A5EAF94B1DDE50CEB55DDFD7EE9A16747FA4B223359FB1FCC69E1194892BABB93A1D5C4E807AC0EA2E30180811E77A2291F6E7F7FAA5
311
E0F60215BC6024E48DE436C511F0628B8CA189982D4D83CCA17D305A7E923C37941CFDFDCD93ACAF735EF5F0E61BBD3E6C41A59B242790D3A3BAC7064DCD89AA2E37214EC839820949D5CAA31E240D2948E48F690298974A96BA9A8432BC90F5071D6537C9666EA4564796B7AFFFA548077BEEA75F63083435074BA182F369
311
9557397F71548383FDA8CA34D99B981E72835ECDA5DDDC151315173D05A21F651AAF8524E88209E2E7A737ED1045800CE3390050BCFB8BE588DF111617874C62575039CA588EEFDEFEFE319B739DE2EDC147092A262611E159650E787917885EF08F1F51B8F2D8A71D60B58B190FEF9541A1BE94BC19FEA50784DA1419FE4B
311
0FB51B8D36B5FF8E1286FD8AF42B91E59A5F1CC4D60174E764045FD8C57B18209B217F89A62252BD20BE0E63E12B8E8F029FE19E0E8D0870F58721A557082250D5424F7909369376E41666C0EE77CD87CB283F661D5FB6D0DA023CB67320A20DC7BE661E9E1BFE5463085C557DA1FF9BE835733766C3D139F2CF9E2208873A
311
D0EB4814DE9E6BF2CAF81614D4D43906ED1C05A3265CABBFE192770FC2F64F940CB6B17B5F166F133C9AEEAD2641807C3E69515171DD74C4A85311513D6EC9530B3B601B6BA3EBFF3B5C3D2F7D69765141E345F75433953D013ADDF8F6AA7DC3F4A7563FE5C7D367937E2900D7EAD0F9FC9A4A1A9B5BDF1FEF08532660C01C
311
5D6DE22199AA774383E306DAB87E301ABB7D213887F9869D4942D0D71E94B27EDF216A318BD488D45DF84529EF575AF3C3938C0AAA0215B01994153E2054A0B894DA5C784980633AAD48576957CF4AEAEAFADC7C587368551C73DBE1E57C58AC713303A8BFC258BD04B51724459FF9E24C03A81E0E0679CEB9B348C0DC998F
311
EB9C6D6EFA77D247CC8F92D3848599ED89A23218D0636465AD1CEEB7DC140D7426F83491C4E8E8281C2FB35240918FFECE880CA2A42D70E8B20B34DF5221C7DB0CF90ECCB9C745B37A47E9B716FF7A97B7A252C1F3814DC7B1E1A7F72B8751D524EF7CAE45B0C73B3BE7D08ED39781B380DDFC9AA4A4749C9493DB5BAD07A6
311
EA6C092FBD0E85DB004DF06B8C9D3089C5320187E4CE1846158C7EA7DDAE8AD9AFFF21AA3A1026BB06A259845E8232DEE62811A4DA9CEAB3A4887320B76E2AE5615EAB7BDF738CBDD01F1E64064BC13D9EC53576751CA8CACD58B3CEB0E6CA585BD089B2A59B9FC101403387AADBDBE70586B93D64BF3AD4453EF9C3B6A938
311
17E8346991798601344F79A83C51F3D50F7BF2683A3605F51A72449489E0EE6169C749C60B1035651103AEE24D24E51A759C840DD3FC6504DA6FE107510E447B43461C79D22970B75DE5E1BD3007D1AFC619A4A4A69B5626AF5E9B8374E20677F77E2F8E73DF868E8BEC7EBA7B6A75EEF7205E1AB9486CB642741D6E03FF13
311
FCCEDB1C4AC129886268B01CDF4B124AF797CF784F3C6DEC97A17D4B558070A0F1C04DA4FF9BDBF34159AEFE958479824B3F58EBD1E19088A2AFDE501B6F2052368A3FD0E650A179EFAB1561E1D27527077136E652676C3670F42DCB3352F48F6BC86D2C3B0051727E41A0A4DC6CE2BE9D47F5CAA2935A3C0539AF08066599
311
7194ABECD723B08129CC5B6B21D2E7D54CD4D12610E7E9FB8306771A89576C7A982002775ED44F3F744CF21EEBB27A631671D921938AAEE3EB0D19CD1E083727F607823E817BF599DCED5394E37EEBC2E88782E638920CA641EF74D4CDFCDEF06F4278ECB18E31E7E9876F2D783C8BF429C75395F57E98C2B495A3DA077EB3
311
AC3C158608B6B57FE3EA48484D9A480096FCEE0DE880950E7E5A5714131C5C41AAA29FD19AE81AC145FA1B9E85C7169A5AB837B213493DF7E9AA4B5FBF9CDEB36EBD21EF1181B7CF7366AB2A951D01E37AF4EB835D1BE8C117CFBE7625D2EBCDB0B20C5A4B45CED0BCDE3EE8DA9DA78C2E21DEAAFFD1197E463C33CC6A80FB
311
785669B856EFF7A8CCCA2841B5A5369173320B1170C368B2748D81062EA0296E5E2D95D7667A4A46D98A6FF475C76AAB0A8C8D45E226FAFC9FE0133EA9F60111F99CA81ACE03A1D14C89E8B0D69079C91464FA1D99E651D0EAF606F345C42A8A1AA9BA391031582B96D5B4176A77AADB01F12FD298A75DEEBB2C82F0B8650E
311
880722F8DDD90C56A7A058E5FDEF1AC93545BA27367C76F5D8F9690CB6F8DAE141EDD7971F0FB548A2AE435F224D6E5954CA155512F7332029D5A1230854B79F258EC5FFDB09F5F6343A8EB193229B7F7E79B3E48F8E183860B38C8269D1B53738FF1E0BACF6AADA6D4869E9DE708E79B5DADCC09B1BC76F649731CFAF59A8
311
3FD8BAE4C749D66FA87A3810D4D62FFE826FA400C0F325D2BC0F3CA35F5847B82A2ACC7961745C823E4D863D54460AF792CE6F79B5C7A33B25C3AEA6CDE15A919B6367D781E9D44F61BF828672594A3E1D9EDD6DF179A81F27EAC05B936575D73E05C209DDD2115CFB705DF9BBF3C911589B3640735E9E618FC9C36A7326C8
311
2B2205E244C55D56FDB9D5DC93CE958D4BF8174D2B3DA54CB3C09F2C2A6DFF73D23B2197355761AD421EC581284A7EF8DE2CE3497C0C804D49B41DFD6A7360844E5BEFFB495CFCDB97A4595911CDBA623274CE852B5E278AF0BEB1770E9D37CD977B2766A7DED0E94B840E1E95E8C77DE5CB6354AF7871427C28ADBEEF7BA0
311
A28E19DE9ACD75F379FE373EAE6DDDAE3834692F9C2B03B4FCA8FCA9ABE8EEEBEBB725B88A7C90941E850682CA04061A7DF0CE82ED49BFAFFD42C309818FAE14755CAAE78B0F73243ECCCAD7DF58FCB9CDFAE7A4D3E6671A613639130D056C8383C8F4FCF4808C331E544DD26E4755D09EA05253B3049A1E32587CC25D72E0
311
73E2CD96D04A71BBCB0038FEC3F53D254199C3CDC67CD66640269431860225392B2CB3ECD0B4498AAE78BA1994246AE1EE78F2EDFB79F6C6CB6B5E279C4D373FBC21CB2698C9ACBBEB6A4BB6B39E16AB0E421CCBFC7654D81ED86022F9BB522146F9F4772E2D0E4FA70120C95A85A417BF5078B232F4754363EB1750B2AC21
311
48EB46B1EA72AD9B4D23ADCBC589D70106C3EC2ABEEED84DFE28E718C6C83502C28E9FDD3B09DA0A6F6F7B72B706A31C9E2A331EE70DA56A083D2177BFD63C55B11D8D949FAFCF90B23A1E24B9B5018B9A17E99F2890EC302F330FE7936E2C23F0D237EC8916F5166AB84B62A21BB0B950146962D754F92CC2C8877BED8FC7
311
B7B25726DD19545392570B3A2C66B58F027BEF412E552D12A588C4A3CC5C3193FCB3485EFFF700D0B9EEC077754A33DC1FB9E25AF814628F91DDFECB667D3F7690803F38D13F8AE39353523BB08FC6760144AFA2CE28236F65EDBB3D5F59A57D612B99E3D7E5F8A851666BF9B5A6658EFC96EEB37A378ABB0EB3FDDF1303AF
311
32C41BD1C8560745D7BD81066B0D6313359CF488563D3BA3F8E2185D1FAA3EBA1397C9D0E3DD232180A4DCADB6AF25DB3AC3CC26589C8239E66E81547BC7E2F328F9884764CA37EB5DBE390DFC03A5246B456A7C3684C4377D0EEF9A350680FA9A077E8B2957B489E09AB1AD41316944C2254B5984830F691C93CAA767EECF
311
976FA5647538830B5E63236A6F0365C1E0F3E327F24FE35EDDBD7360B0F7374837409F7A6311BECC12B7026D4FA1AE204FA3F5FE904B1F420C7A9044AE58E403E7C4848E7DA25DC9EDAC79DD756FAA26B9EA83ACE8A214A2612A22AFA19DAE7DBAC5F8CDE1292A485F98DAC731A29FE01A3966E96BCB9FB5A4C8830E1B9AF0
311
C54B87FBE221A097036E5D28D1F869F810C06A9BB0AC0612F69AEBAF893C6E7AD59460208BAB3A6B09CA4F6BDDAB8CF0D1F84B72487498395A70DCD754796E271099A567A55CF242BBED64696378BB6CF25EF0FCDB589F3A82F1116D010A9AB9FA4358809EE0C973A2B4229BAA876A70B03AB49CBA7FBE71DB1832FFD32F9B
311
F2C8E98075CACAFB36921235D0F552B6A67E94E094097A5D7DF681B40623DA535ADA7A9AD8E9A62407D7C9A5AE51D62A17A83A23728DE86BB56115804D3F2675F2C6B87541A0FC497BF0CA86420F558C9859EBE9FAD62747E323E3AADC03FDCDDFE7407B09DA90B44E3185723C5381EAEF589765E2F7A099BA46695BAD60CE
311
F3491B8A171F5F56444F7CE9455312C3498C74173AEA0214EC029833B34B650CBB5A5508D5091665309642791708ECF27CF11DB3D797D6CFE474453BD4BFADB768094B2147814D81C7CBAF8228DCAF5564B5891F5EF6A860EB2E323CB82AB868D8EA048880D63B0DE5341F1B3D53297B928A11E15F25E5148990F710747C35
311
09ED14909C552EBE3973246FCE55D00564D8310BC3EBC5085D08D806799B77D6C57FDF5E55837F9E934F09C03C729271B64F12D0A9F9E938107CAF7BF1EC8CF1BB9B42363D33070F4CACB425E605DDB0A34A12BB936DE286B9887A4E2E558F0886498BFF49C311D96C277CF6A9FC0D75AD0ECC5226D7E0E3572012E56D7FDE
311
4410CEC7A6D0F997F225A2055B8B92E3956E875AE4993CB3D4C9063AF98FD45E1BAB165640A43439A2C9181A7C355B297C0A0CCFFAE19B6FA3C2BA238A885FBC98B8F6DAF4B94B97304878DF4D8BFF6A4AEDF79E90ED4E68F00CD7299F4E0D83E35601AF0CBEF18C1E870E74758FA91F5131075004DB3CFCF09AE1DABC1195
311
7FD9808C92E8A678CE9DBE40DDA0E0D1D505AAFBCBA208232BFB6FB3704E8985E61ADE53DE74152F5C7DE74B1DEDCD37DC3E8FB30D7EBA8B9EFFC3606BF90B8D438279CB7709FC7C00D327F41817EEA71CD9E49FE9C8C9A81C70915D9F0F15958EC5AA4C3BBFAF46986B90F188BDB24B89DE3C6F29EC3E6F66D84856EE96A3
311
5E657CA41B41EFD8DBFA16AD6E91439EA92B40B21C053249F51AE50EB0B24C770FFAF40DF12C8436366819C48E36547D4E7B72FE2BBF10828583057814A668BDF183F6B2E58DFB151103E56303E63D00F39C27C4661605DB644D19175D02E3F0241E8FC3458D17AAAADB117CE9EEA690D0DB01E634878C04C2C9310B69FCAB
311
831151E3AD293BEF6E46B0ABCECB50F5939B39C613D41E81FAE8D34CAE3C4566B761D37185FE864AC32FCB71AEF39DAA5BAB88609BB980CD2F07A8F941653B529567726E2B2A58D079DD57E1E5E31426CF184A04D7B03B985F276D47406AF276FE32E3328BA866EB1FD39BEF57863A317634AA5FE467409B3873F5069EF0D7
311
1AF00AD189D17BA1974ECDB2D623E9E14086386A6AAB5807825C37B015BFE892AFD154920EC437EB945D958E18622E1E0FE2FA06557CE4BB9BBD05A2D40E774DA2B65473791E314B7D6C886820B2FCFE4AA272B3B8B15E7344A145E8AF919B5454D89D36D413E87211186BF6F645E5EC94DCCE8E1C799022E4EC9BC86D7A0F
311
2AFB1FC4B2CE48F84B3F49ECE65BAD24CADCC07EFF39AB06BE9E6B27A059938EA7208838455383DDBCFCD967DDE4650EF92A14FF933C975DB20BD7FEEBC4487576485963D757D16340D9599FEB362F775F38CA4185A86F74B629C81B133644A3B18FD056E997E0734F9BE26D11C0AAFC669E2AC9FC41D281F8B2E1C35AE27B
311
CE05F3DA295488096688719D974DF1B5D182DB7792288697F8763CFB43562C1CDEE11C4AABD5C22B6E33F6F389CFC3477C5919DC0D533F8A7A1846B7ADB60ABDC26C43D0CFC8910B7C15EE22675BD02702ED39DB77A87A192CA7A543E6205B979B9F5A6B512A3CA799E198B2D5797C0AF8D1D872CA455D4D431A7879D4DD76
311
110B5FF7F4176B54477A9EB5E4A5D11214FDA585F0382751D8E2582BA5D2075053298FEB8F1537304E32CB22C2E2B693DC0A760B1DFCA751BDC445AFDCBB12820ED85F6D5298933C7EF1211E9E057684056CDA3FEF3BB6052355E162DF27C59E965A8DDB7F9437EB72CDDA3A090DE65A5B2F50326247B7EC67B73ACC7047FC
311
9B353D6EE990F772207C6EC52B39DC2F3C0754821DAB559F7C1809C7D0DD5B0499D0442E0A6E391B3D5DB46D11E731E6794EC77523FBDAA242ED67F9FA1FB684255671F63C9BCFE6E7E896D51001A6113EF2298BA494E0B0980D1FA5B9D60796554C02256B1E0345FB7C6186B6A19D2DCA270416262845FA4F42DB5D9B0A0B
311
6F07FCA2E56C242522E001E0CEB734AF310FC8BFB57E38E03AACE93B3326A2197891E68452B26A6307FDABFEE0223D3C03C3C73D2D5BC054C8311F12004CAE488E5C29287F8156A2CAA4AD0D7BE6B97264E4139F437CE73ADF52E5134C52B819777C18B323A5924E4F67AFD13B1CDC3A61793A79FAF5C0CEB718E441071E79
311
7C6DCCB9EFCF7E4A1E9F3DF3C2F9C9E8294E9586868788C972857FB0556D7A26941A7EEB9B580AD78EC40B85DC906B4120A563CA3B87797ED612D3B035962BB75F6515A393F4CB057F564CDF54F2E5A024514E6A1F901DB80C7E70B1FC05E356A7E72FABF4775B3E3FB8F70A2A8E7B6A94542BB304157978CCC999E707A29C
311
C795E67A59CC546A5D47B368954CA7B6E75EC9E1F6FC73CE3B4F71F8CB1A6B15923D61EAAEB14626AAA9D04A26EB9C66CD1BE86CA31A5D8703DE04CD1EBCE4F5CCB62F93909AD11E55799A781A956ED27D3E738F4538CB04ADABC7DAEF20BC35BA6A90BCC1DC61BA05F20D8832FFB9BC9B15E2DB838A0AFBB7E0C82A562127
311
E0446894F427794C3037186F622BF24DE1B00AA10A23BFA47B2A180D6DA5AD6F7326FEB8C100C2D7142EB2A0B2A9D1008A09BA343D70E054AB69E2A7EDB783CBD92537FAF4A44D1296AC2792729104B3276C276C951D0CF3CF3F1E6B017720A7B8505A5FF9589365979678C36F1BAF759EAF57C60F1FF5FE9DCF5F8E764FF2
311
5A2D06CF25117A8FED51884C13B2B750DB0E4F5E3D64124FCF11F0AD8F1CC3B3DA4B38ED22BF1CB2585EE6BFEBBA63FBFD44F9537B9B37BDD6B358720F98A8125AED4349CCFEB0E135F19E208A04CA7E2B10711185D72E381F448036EF57C9F874E54A971CA37A639E986AC0226DC5AA00D5B14FEA9192234B3DE617814FC2
311
21C92F33F1D392F297731B567FD98FD91D989379AF567A65B8ADF177591DB90FBEA99BF4ED11B16E50A0AB1DBF1156D034BBE04D69D08F939D8E92BF525A1DDAFF80ECBC95D8F45D3FDD289FD23F7D8B452F8EBB34EC082DEEE68E18EDDF072060FAD2AB1504DD4879BF67099FC58F6E9DEFBF645D16334A3E9A127C6F1AF6
311
132CF287E433B43A0EE93812B4AA0B194E03EE3FF91EF9C6ED0074A2F6EB18A96A7C9890B1FCDA1F2095E944DB911ED54C60DF16FB74C8CE9BDC7C54C4F14078CF73C2FFF1F1BBCCD7CF64F71407EA1683DBC410D226627F66E509060D5C0AFD611DE681D509DB8DD12FB1265B03C6F5C55FF4C30BD94187FF692B4F152982
311
502F193098A789526A038AB529A52BC0DC4FB6285CBAC10A8B8DB75DCD9BDABBB221E27D1F8DA9F5EE5926A1C8AA9BA9BC09239C6A7F12914EA3B59EFF7AAEC3FFCCE56F1C5C2980AD072793527565E774F4631DB178CEEC691B1F367BEA0CF2907E1D6B854D527065979DDEF002D8B2ACEA7CE21AE297737EDE1D45B31233
311
B73FEA35BCFDD0B09721FDBAF6432681F2FD10C3E9EFB246FD6E854B344ACC9D8A0EEF876A7314B49B6A499FC650B099D650DBFEC7638ADFD245E2B7839DA5AC5F7D5623FC0ECEEC8653FC9B2BDD1AD4D00A566FBA7186DD3C9CD26512551637498CADB950FEC71ADB9A5524285DE328B8EC7EC75D2345AEC6A27C42AF6D9B
311
92155315C80DBFCABBB7DA0FAE425C4FB896B15C9BFAC4FE67DF5A23D30C93DA4D8F36FB15D100050DA6062E22AEC5F4DAC4F6FEEF97AE05DE63C6D38F9E068A20BC5E3B6BCD75320C5090924E7F93640A7735B1A43451C2D91EE62C6238B797349E59890AF3A520DF4A87095F3ABEC2E61F0593416CE46CDCBE0E00E2523F
311
CCD04408588B5B6C9DB6459C786CE378770B54F51DA3A5E1DF2A3349BEAAC234A6CF8993B598B3B25B4B113E353A4D750FA7534749430F3EBF2512E7EA3FD43C6AB9A1F765A58463B306721A15D224FAFE8C6F5E3432D57EE697DA0DD5A9D4866A8BCCAAA9DFF1F06047851408FEC060471D0E3EB86BFAF46E4B5E60311DC3
311
E3CEA147C75CF971BE74689507154FF2D2E92F15CDB2B9182B11459FD8ACAC5A85F174BC94A7F4EE4C4F5CAFA7C02E37BF0BC77B7DCD0C047BC316F562A01A441AFA7931CC84A28CB9F4AA367EB515778F29BFE61195FA671F4352E5E46E3A64773F1F76EE5EB36D7BCE9BCEAD837A4D77F8DB8C92AEEF6711920D7C7D0F76
311
B0FD0EB7AB83724CD35BCA7D36DDDF5FBB7FF6F04A91F3E2BB3B8F1A43CD659639507FF6331C5F697BCC782AE57D757A27D97F1AB9E0AEDB43F92F1B2AACDF5FEC8ADBAF9F814E2027003BA2F9E144B1938A7A04050AE5D953B82C45619165C813A10E76DD6906B3C16438064D14CDA713AEC420034613E1AC7241904A49FB
311
F87409AFB1FCB9B72FE7933A87D8FBEDACECE4EDCF6A4FE9FB94D5DEB74FAB7CFEAE17EE965DF980DCCA2D04134994F9A2E94D2265DA4FE6AA7B7AC15FACAC2B5ABBCD7DFF542C5314FDAB2E1B9D8B65220B8E2B638BE008E8DCA22678C820C5053664D15E89F2D735B51A84955E81A443545E9FF787BE0FA700A76D136C27
311
DA179A7C6E8939E01BE756E19CB292798063D8B97F44E8A27BCF3A614FEB8BE974A718E86F7EC99B53CA35FA24F61F2B07266684623A3D4CF073E511F3A10A8FDAFAF0078C577F4DF9D339FE7862E5FA47CF4344209E5BF76D783B1B48E152AD281B15FCB934DCDA49CEC5706B1EE8B460F435324A5CAD154725E21AB8044B
311
75A557A79F6C807B9340AA3D92503E866F4274412926C8C504E4D5EF8C0E68DD0B028781A6B4054F11CF18941F101C57CCC796773ABC8DED9CD91FE5788806C05E548895354AEAC96546D55B0E94A59F148D061F42AA398D822CDECA4CDE79E13469BDCC44FDC990F366BA5978C15F97ED80CBFD73B0CD9B8B83A4F6845BDF
311
BFAF034019473FB9A63BD55D3A4A7284757071574029A4D016DCCBE95DD679EF3C4880BF169422F8C89B68A988D2B13793CAED4F74DE7486C72DC94DF46B8E93D8E02EFCB1FF9B3BA10C8AE7F653DF94F4AF466CDDCEF5776687F7C4C14B63E4EED1719DC2EC482D7DBCC7AE518CDE3D5FF86D39000EC3673C0044E1D308BF
311
05F74D1B5F033A7D1BE7F74BC55BBE3E4A20F920946CA0271EB17BD2B80E5660ACB8A29A79F5E4BBA49D4D945B6EEF4A7EFEAA65E5555BBB57A7E15D2F83C69F30BBB978D2B39F1F26FC097424D39BB33CA3D87ABF64E307938B685BAD44F71556A30B7E712CA4FE600613C3E554B69ADE949A7CFE214DF1FFF05CB82151EC
311
6FC31950239F94CF7AD39DC473F6EA356E5EC2C4EFA04383CEFE985A127484366FBEE3C0EC4FEA363E4F6632AE781392FD45D67B63FB8DF70E82734F431FD3443172A0E30A83D60982D55FA6A2CF86DBA8382502ACC6CDEF3B907982EED1160E14863FA242F9757347E1544275CCDCF71ECD5F8621CBEA326B8BA884AD7F82
311
5781923E66971F04010D574C541D8427A438A37EEF8AF88240EED7362C953F5A81DE2D56109CDE2524EA0F5D2F87308C0C47BD97AD605878AB8589E17CA83930CB5E0DCCD75853D68B1AB136594926DE426C367428E9334AFAFF90ECE221BB5DC9E5BB53D2CDEF954EAA9CD814F0E5725F1965DD458E5F8487683AD86B9D00
311
76BE3EE91EB1CECC5331A67A3F79D8B27587C12EC2A6A70474749F27B4C0BBAFB94B34189E88DC18964BE4121B9137FD516C7755356E50D6714E31ACD222621EBBCD1CFF81D87479056A9DA0E0B8EA19D24CF937DA89F78E8650CCBDC110AAB6C4E46DCBFD0446BA9E2060E81F314AC2031E88135E5476AC0160EF5C0DD2EE
311
F1B8B5CB2D198BE9A554A9093B5F7D7E4B5407DDFCA1D9C152FD97F55BFFFDFE802954DFEC8995B983E28AC92F1971E28F531DC407A1280EB125F64A72E617EFB27DFBCEDCDA2D6F2BDADA36873EE46B9BE1782998C63DA7182BC383FB6FD15DA472B175D7E8B4FC88F38D6E07FEAA3FA3CBB8F6B449ECF14D2175E5C5CCA3
311
A42ABF24CA6C9395AF74535F4DDB38CB84F56614B0FD32D7E19CA5CF988DB4449C40E23DF2B16772594554579094450F56F253CD25EA7F77366FB1CFE79696C428BB64D5A41E986189427E5E4D7E2DAE3D5BB4972B3DC44EAABDDDD63A2264ECFA5C786EB0EE1FDC5BE34FA0F08376869FD1E61EA06CAE15191135445EE8F0
311
394161C3266A596AA035572BB0C8876180D8B9C77D307DF9DCDF7365ABDA6F3A2366436457A4DFC1F259666569A9E4A79C817BDD5610E5200FCE894A358EC72858D50EF67545DA81C6FACE3D457BAF70367E1E6BDD9A952FB4F56247F58F523B97E640246051A72F79BE42FFA0B3187F63097F91C48B868586F714B0EBD5A0
311
0A8412C1236E1298F60C72BE6C96B82B404CADAA304AE9F303176B14BA53FBC2D5E86377E35542019E24D97B96A49B2C0E5006E7795954DEAF5DA58958839043C6C70BD3B1B33B6DC5C31316D8A6923F142E26F6711A2258AF977DDF1F970ECC4F1F2B434B96D81BEB6E89BF3BBB3C7C8CC80505070723D6D7D7D3C8CA27CA
311
164A26024FED94B12A86031867241DA53D929636DA600F050BC40CE48B8BA03D69224720DEE2ED2127390BDF5E6EA64527BBD4C4C63FA76BB801FEEC0E61218EC98A8A86CD8313781617877E66692839B9468CF4DB8E50A73986E558E309C0D6F676F921BE02F1185454DC75B111572FF9D27D85EA14C05AD7271225B391C4
311
275659CA4A43759D0BA44639BE4C30A84DB7F67A41399FB95CBF923B1B1672ABC807C1590557FB18D811983FA97F5E609516D62281D38B1281F68FC75528C35E4CD7DF0F7DBB5E5DD69C414EBEA2F4A5B241B996BA77AE6C772E367408C633EA3E438B68563EA8BE7667F3A4C4FDEEA52ABD78A2820F443B7914A15F180018
311
D231E64519C56A12F6CA7C8DAE18F06F6B769DBF92329EF6A5D18FBCE600F36BD8E8198DE5CDAA96181F3A756EBA5501CEE58F497EA4F418A2B82565B9BCC611713C0B708CCA1F398B78C5F7D03B3437CC18F13061F55C7BEDADD5ACB1DB0E36D3CE47FF6EA1A563A57E9649EA5D14D1A50EAA457463381C073777EF160060
311
7BAF6428A7DDC079D47A204EF1E1F1F0589FB054D45E02CE623B3823C317C601E589E22B1E88B448524B86A82828E32345EC18AE17214B42F8C41C6D428016D9BA31DDCB47572561E5A402E5BA4FCE55F78AF7268524AA04130F3A20BA5D1E9F9948EA48FC8F5314FDB35E21898198060034ACE5E3E2BBCA34092518F27519
311
0AF65F45867FF0900AA4B81F25427414C372BF51DC29AA855C5428EE1EEDD6B849AD60F6E73475C2D2523F8A2772C840A478DED18A8C5C91B085F255DC4F54EA7AA8947354FD17ECF8FB3B4A0DE7B483CAF3A1165EE05BBA413E5C1FEF3DE1D6B8F2F3F3251C17D9FCAB48A9AAF63AC773A0E413BBC46A9ADF84A566FC920E
311
4D8C52C9769EE3301CADEEEDD92B312E02E2A7E35B7F1E7D203FE5A7D75578B06E99D0E46FFADB8FDA17ED8880390DA29094202D6F645F76F6F96409CDA05495A96E84B04A00D1A6C6C81D7F3DE9376E828CCF144EE50E364ACCE7237EA0BFB5607ED1AC3CFE73794E5B61739D14DF1743441B1AC98F00ECEDE9E7301FA297
311
55FBEFA68C91EF2B314CF510537EF1ABFC9A762496280B546F5EDAAF8A5B387D469FC9A878A92828C88608453ACEC6094DCA54111E7AD5B2663DFE2DD151B7F123B9F4FEF8EE36AB125FD7AD52A59B1B765B3E3F73E3F73DEA93875004D2AFFE3CDE9493B87A9904DD052028949041A91DC0E1BA47BA714343FD5B25E0A6A0
311
9503AFC17C790058A836A324FE31D7893512E28230332F153181C1E018E1124EBE1BA262AA428A518237D1EA7275E48C5C561BD19ED6912EDD8367DA0F31E40EEAE9683DA9257525AEA7B632B97119E17145A90231768A4F3B9120FF32E8319B015E3CBE26F1A754177D8185345817C096B0CE443A955D13AC15E1FB5DEEA0
311
239EC32A3C92241A237B0B02FFCB4F93CF2B02570C8D192E2F2A68CEEB42F12E6F8CEEFF46C251E22B4341C56FB08CCE550E7A9D6F4D6564B9EA52A83D5BF2C6E03FA19D2775E15A8A7ACF30A13C259EE7F5EF2AC3BA354F1500E1A07FC63FB4686E2F12EC69719F9ECF5FE3F35598DF2CE944008CE78F0911BA5BE5D0A34E
311
0098FF038669C26030BA9B300303039852A8F6F496341737CA7E0D2E3AAA36DE0A70AA7D9CA0D54D9AD84B18A44C9E625475E1C97B93BEBB38DCE7D227E67A2D00F531436136355F243D1FC0D712C5765754FA22FCFFAE97919161F46D6E61ACB37D83777B385889770B50765B127768443A5C4D3A4E35A3151111F146B7CA
311
116F918A049F1C272F2CD7976C69A0068773451659A97E0F4A08FE604C3FF6CE7385DB19F4D3ABC8A0D80DA8A42096AC377DB49382B36E270B6FA7570188B4B7D1DDDDA82ACA487CCA5D38BD3BD039ADBAFA4ACFF27809239B722081E2EB9F145320553D183F28471C388BC8814E5045676767AB58A8E72D1CED2CA7313795
311
15D2E533E4CF0B39DFC625F97AC4836831A4DE330E87A8126FA17EBE583D614E71E22A8DBF2825599743E0640037303E8E1B1E8EA4E1ABFA4F62907B5E4E0E5DCFDAB417C36C6848A2B8D15F1E505434C0707E16B1CFC2A1C36A42BBF55734F8F4301DDC2A5110CEE8C0747F69519265012A2174BF4E955ECD4FDE095A3ABC
311
70536B7AD0B9D7892F81287D667C108703C9B66A221E9A0929D030008F77FF6F5D2108EF5706FC87A3069B976F7C9FC3239D13D283CDEA83597461079FEEE049B0F392889898B7D87D31F8D60ED7B56B91823A8E4EDDB36C6172ECEE42BD42B12CD67994FA0F0DFAE9389356F4CD4425A4B8AA55CBF7ECD585C6A2C2316791
311
E43D5C06841ADBB226A87FD61515FFBB0167B74E56BD7F3E90A57A97FEDCBDF483A0D6699A8C0849CAEB4947FAA90D8E332D9DEBD9F4738C37DA0CAF9CF3DAA68BCB67C420459C7A64498D6E848E5CADE92BB6901F607AA331104A67F7CD650EE169B1DAE94D2C31C2F993632259B6957E246EFE4C5481107B071186077000
311
40E5812A2A2A38DA0076875258C753F60E0F2662C748EDD5F3F3686B8FC3BD6FE631ECCAA1E8B1C1E565AD117E54893E79F4672E32F9E46B2A183DFDCF3EECB4D4D077DBEA0DA254D256045109670050129E9B9B1A9E4A11344D61497A992778095151510C4BB7EF2009B63AA4360635312E4CF668B7E0D3D85A8688E2BD83
311
B569439892ADB63461930D428E0DE42E4AC57CE48DA5CC1449530D8BD3D6A0F08DF20C8E8F570F2CFFFCEA286E30969B4654D498A58D9DA782E19FE3F002181838925592C4A1EF0B332D88B61A92C644547BED490D3A42CFFAB70E36D961F694F6307F72FF15A1C79D5B1B5CEFD353D9E2B52566DEC8F8F09CB3E8359C0F68
311
EBBB7898243E34E12A015B2685AB303C04D3A9E00671FF3DFF0A184E4A2ABEB2B666AF5B3A209C73D8EF29DCDB069C9F391EEE9DD0F74C7BCDE16F8F02E3B8816122BBEB50665775B600549D8BB33A54A6BF940C028118BC6878C79958D6784F9DEAA6E26748386FFAF8D0D0101E2847B6563F5D8DC1D78F787BE00E2C941A
311
E12148D4A81599FE8F68D4DA5CDED75530ADE138240300EE13B0FC13A1687FED6774662C05A2B7DFB186732F0D7A93545D8B0A6390AE5054D9CB582DA846D7A061B3358B45E2B52DDE63E114397EDB7E09233A579155D795BE76102CF277F4DF8B188C4F2879BEAE3C08347124BF9ED23B128259FE107D31E34A652F090B30
311
B39E0D9AF917B76A2806135621A8A60681F16AF216514BBD02711585B5B1AE823F4B2D0369EA5B6BCB863072727FFC871CA6C9AB79A814D989057E9470A3D238BC87CBB4A0EA49AFE2B86F22E499793CAA9047080450166BDC357524561E258C77CB697F1ABB32562CF87C3B7AA12F911EF19FB3E5C02222E887D08202A60A
311
17151F5E053A86B437771088B4FEE14D652C43E8D939995D34545E12E2FF93D4E366EAD25F10CB7DED141563C3D0C447AF06078A91135FD4B9611583CB4BF3BD167F2399CEAB0E0100F8FFC305F00F1711717173138B4B48C83022295DE657EFEDD97F238ECA80F528AFB4F8D67AD4E2594B9A3AA86D7487EFC313BA95745C
311
186F0CDD84CC12DC9CB0424B42203D351FD9C0A3AF10CC7F388E0329279087386421F194F4A29464C1DEF7EF8BE515E4A199DCD5B909342598D8FE6A231F71336248D5CEC5454455C7BE383B3BC7B260FED27F703FDC39A170F3827239102F59D4DEE7FEF82EAA1A5E4BA94DCC4CC44E7E2EDE20F24244E4454369D2E87C3F
311
823F193FD4FD27E1C23984B01898D15ABC20711A8A558054951A6AE280096BA36CBA439603B7B0B4C45F248C14B2383B4B5CD8ECECE4FF859AD4A6CA2326D020EF090F4041D28DB66E5256B56232CC52829DE8060BAE6BBF37D4B7469B822454FE93210A3E8D15E69FFCF01123222611C51C4FD0A041A0CFA2471CF6BE38D2
311
B20FA4C3525B5B8B586759475CF80ADFE67A284AC24651E52B8E683D24C2622642F27E7C3C22783BCF63648BC398BD6CD0D9C97E7E7E3EACB6126DB7A6C1FD9F1031302EE67ED96F22B77C7CA0239BB324207559B105E4693EB26EC46182A92C9C0DBD24F29B31C5C5AC1F84300E0E17CEEAC15F5736FA4A98971E2F1423BF
311
CD68D4BBD5F86E74B40A369F39507C88FCDB35D2DD8DEBEA4AF999E23CF2816D204200DF6E611781B9884C1AC8888B4DE397320472959434323A5A36B22A8E1F721A270DF3BD65E4A31C11FF048AFB0D8B7B6881423793963A23CFCE935FC189ED36FAE35C46DA3574C979E4394BE52084F3081837BE033396D2EBD80F1F69
311
1B273F660D2B32FA27A33B1DE4ADA5F0FA4651511102DFA410DDA86E065272CA314D5249DF91B06BB92807B28EFD54F08F7B525252782CD276DD02E6B0319B13DF87B1F6361AD6B28FC0D711CF445429B9E5A433CD493051C49A9E03DDB1B147D880253514A5DED88009018620EE229101C041950E2D8AA8E1F5F5438E0C0C
311
0C60EEDEE9E3E0C051948C69F84BB7B2A48A1F3C8EB9E6864687F4F4F6F6E2FA87608ADAF9C5E117B7C1A737E710769DA1D15ECE6A84502AA855398712D5FB51BE92E4EF824969CE18278798AC303C2C7980DD2500ADF8FB1E6D6C2FAAFF9987178923334A244758BAA01A9A1B70FA5097D01E1CC2A58DAD0EC94CE6430AA9
311
B0C10D75E3C6BAC670EFBADEE1607739CE0FC18A2587E3EC3058562014C64219C69BC269082D5C2F4A659278D585755912176D78A1B641719C2A394CED495A1AC5D583FD2F5EDD93308EA7EAE8A6DD396598BDBD3D4CFED62D18A5BDFDE0DD5C80D1A89BA62697B131AE7CE9A6594138582F1B37D68F1749AC7CB67A70695D
311
48A4A056AC1FBD4E82358CEAE38F54B95A9016F9000F9879C0D9D131768635CA798895F27D6F1614F11F2838A83611AA51C9A3DDB539D42979C29F10465655C17BEC3E2760B80DCBF609198C7B171A531905F3EC218D696025975E986C6B4C666666787271F202805577DD5A3EF0CAFAF91B62DC4B2DB4217A7606282F31D8
311
DDBC290593BAA93EA6353AFA9939B877978481E15CFC9F2755CDC00C538F63A4BA3E80AE009B73CA0185687D339A507D165B74290D6EE46D5C58148F020C3668ABE9EF2F7549170DC80DB41FFC1D678FF19AEB10C7133832B104B80F691B3138F97A92D26E551F1F110400D45AC71A9B9AC41A1A1B1DAEED0B0810638EFFB5
311
11D46B121C6FEA0F38CD00E03CFFEB9713FE1F9C263E4DDEC160D0497FA9A132BA608584057FB15380825DE6C7FC3C667EE947D488A09898D8E939C4953BF4EC9836344D2CC6B2971B2A21A572B06096F4982D2CC7232D46E8EA69DC83722E267754D777F97F96D5DA74E1E75178084D0E70F12AD33E5F71EF2AFA599B2BEB
311
F60A5BE475F444F240CBFE8143C334E7ED9150FEEFEF7EB020C4DBED388DD1D6A167A76F3CBF119B578AE8CFA7736ACAFA4440A1C47185638A0D2F3EB5BDDEFDA958FB13CE4AA4923D5BF840392D45544329525749734866684BF7F8D9D54D892E19BCA9F829A0F8BFCBEEA6CFDFC61D74EA1A645ED7A1FF241739F15694BD
311
835B66FEC5677E40FE69BD3F91AE402F036537218A401CB0828604AD189E575015C6F3F6BBC8AC79CF6C70653847254B31551EFCBEB5978B9DB85D58D0FA41A9DFE9C624834AA04949D24B5AE6D299E072D152D12097920F14AA92C31C3B97E28B6C2E6E9C23D63043ECBBC0A60FDF5BD0C33C127EA8A3308B8B6AFFEB28B4
311
455BF6E7AF4FC6222728357EB8E46E85053E6A8843AB23295BF838ABDA94658FEF3F832F147046B4ACD6F7D48E8FCC9618582961C898D1C7A253C91BFECBDA6BA18A1FCF70755DCCEE2222F41B76D23CA98D0CB3D95F0CF66D57FFF65E2A90F5DF40FC3187621E981BD0BC1D992787212688976B94A8F0C6EF646624B570B7
311
8E068826F87CE27041A95C9A4871FF65CC17FCB1639629AD6A9517000D63AC231F3D741CB8430777E7ECF80CE7A3F73C0F162F7E56AA71F4DA80A33CD6ACEE78E2C11FAC03DAFCE929B106F8F6B3ED2DC71FF994BD9CEF4E9A94896EF1B6E2B7B4978168BCF0847A3D2A4F1B0500B926E634B174548E9FBAD27153FB5FC367
311
99B1E6C7C38A94E1F9E996796D7B485E635D5287A2AE76FBD11A341DB3F8F810385BB7296391973DC6C37C452A9305AEBBE0CDB6C566DB59FE60C8E94B1FD090354BF51439FFD1B48D725228FFA88C84F686F547107A7A235665A4593B7C34D748C1AC8D56DD5DA861EEFBADDECBBD65117E65851F90351AEB65F0EFCFF4BC
311
FEF24CB7A5879699FAC437A7AF9099186CF006BB923A59E37D7A36A29FD8D2CBB914A5E9D0A8FD212FBF796AE9A67958FF1D5D8B85F78F96219D4714EB919929241B6C018AAE0C02069F8D919961EC5DDFBFB7573E3AC8E08BFB7C8534BE6DE045B3CD63DBD71F7638BA2309CAE398EA3A7D8F98BBBC7AEB367EFA5CFA27A9
311
F8F2F52FE878058E6209C026453F8E7E8A237DFC389E9590F6059B397CFD65183BBF936E86896612A5B5FEE49DAC8455D026218AFEBEC12B3523A45B57B82C9C97E02ACFA1184DB18E48CF615DBF39C3CC6F0B4AE6BBEEA2E39D944E290302FA3DE33FA7E40296E2EF7BF1CD855BBECFAD0FD622BEE9746FC4FDFDE545AE6E
311
3BC234CADF83A0FB76DFB145BF3828AE3436368AC24989454F8FF70A177672C711CAA1A76107218CF948CA01F873520E7A2B118EBB161ABAD432932029628B6761590C98AB590C8C8C79798CE9F715BA696E839E9131A4BB68BE923F1747FBFF165331FFDD4D05997ACD168F12CA75348DAC04C7F509FE83898A8B421181AF
311
492861CE81E4A2DD0A30850CFA95E05F097FF70F9E777310D584A75BA7018922E271DAB1D785671157685B7D383D3E074DDB4F1E44EF04B07BAAC75A062077C54B9752C738C9D804D402E02851F3F89605AF189738C18C021D2139EAF72513824E10DDD3047BACC8521ED7E98B257D1166903B1B08FA6F918FD7E162913FEC
311
7D0EF4787E29C35FBA8C6E2C9C20E9AB30AE42CA2A01A090E7D010C1B5BF9CEE2A304BF3A987FB40D836979B79E18D70F257DA61E808472DD85B82761825779D6B90CAEB0F23360C6F80A7D7D77545E95B3DFF0CF96A827F9B5BCECD2C9698718417EF80FEEDEE938AFF55859D0D540B7FE09435583A6F04874A0C7E8CF234
311
DF4879722000167F5872CEC6BF3EF7E5A8CC8121E6A359227C8A29C95212F9F735BC72A887D56B8F309FC525BFB4FD767AAEC4AEFF249CFBBD2DE1AB9969A6155C7D8DABC307E47324C1F916C7BCFF40ABA5644E9FFB9238D19ADADA49D9610F01ABBA57E4DFCBDCCBB2B93C8953206C91DE01B0E2651A6D6C31721915B31F
311
7B7CBCE55466F6D70402788FA91D73BE4ADCBA99A35F17D6B83383704917D6833F0FA3CD45C926ADB8BC17999A4A0AFBCE2541F7B8CF4C2F5FBA611B3E626D64407CB32C122DFF4EF8674D6EDBB86C8F7C6A16D50FA685E2CCA34F8F7D1D8265BB0042E9D7F1F666F7BE5FAA5184DF58E12122A42EF02F461B3F369AC746F9
311
6528AD208512AB56844CF75B97F352DF7995024FB02855385854F3798670D01CAC771AC3E1889EC25F61A20C1F8CAB46898817F9C47E2CDA1F286BF2F358298709FE567C91133E2638C8B53975E753EA8BFD3578B5F7186B7BF084EBA3F77BAC3132A5779902EC22AF2D2E79F42D324E083386DAEE9810D1B44A5DAA54513C
311
7A71E52A4AB9257D975B621308FE4D2141CC3DCFE946C154A3C1DFCCA7629EC69ACFA831634ADDA93C0388D2A9A2DDAFCF957C6995BCE7FBB6DC4EBAE79E63EB08E9A25F52F67076F7093CA545CA3053B5BF576DEAD4E0017143C5F759F32B2D6F145B52B67B48909B7C7FCA6586EE385A2189C16932CB6DDFD9152AE317C4
311
30492A578ED27B72D85D40C7C93C097939E1B50F4D67F05334FE9DC362C30B7FF561B95259138ECFD9274C8D695C31B14D4EAA9F3D7FA8DDF652F8C5DEFA23284C799B7D94416DEE81E05A866302DC70192A5368EA65E1CED8BF107A1E2D3119A71E85DC1A7B0C1E93274CE04DD0F2ABC8AC7C987FDB002B6F81757B43502E
311
F7A0D92E416494FAEEA4C9C090CD9557AA4D532F4996A272B94355C5A0E4974EEA9627476F30809B94D8D8D860062E02204643BEC7D0438AF800FC7E2B26955D595421E83C69E1A07E0E3122285835F014AD538188CF9737CE76D464A353FA55A001AB2526B84E985083693BC76FE211CA1D000679C889E3C009832C87E1AC
311
2EDD05C302557422DF0800E316FCAC86978A371F025A6C7DAA9F333E7BD160403A1A06EA75AA9888FF01504B0304140006080800C8508F5028BB58AF800100009E0500003D00000036333436443936332D433437312D343336412D414433332D4332344642374443363331342F536368656D61732F436F6D6D6F6E53636865
311
6D612E786D6CBD544D4FC23018BEFB2B96DE15493C78601010A34B880709DEDFB52FD0D8B54BD70DF6EFED3AC0B12E6442E2716BFB3CEFF3D18E26FB440405EA8C2B1992E1C323095052C5B8DC842437EBFB673219DF8DA659866649B798C078B48AE6410122242F2A4994AC7F93815DF85C049C8564CA0A901499DD886B2E
311
B9B1E02448F358701A9235880C49A0119892A20C89D1B9FD768815CAD268CB5E0355B40B1E47F3E37A2020464BED06AA57CE8FCC20C3C3446D46761A2632A8C1283D07031EFF2AE7CCB1BFEEE916E406DFAC8E36FFD99A9D60A6944090EEDC3B670C7DC13DE86B6B2C5C240D6E503BB85ACD579D513F1B9F9A69DC9CC22AFA
311
80C426D40AF0B21EA168559156B6276F0F726A6BFF04DCD513A87A62CAD41FB24FCB2858B3952E3D852084DA25B9303C15687973CC8E8AAE11DF2836C38C6A9E765E8C1BA1BFB1DC29CDFE518C8B5A7655A4ED7E77291ABEB80DBD82EC866ADE1B8D05AF9E35CF09D7A061F38A986D9EC412B8F0F65E5D81534D9B231D1E5A
311
8FE577A241F3A5FD01504B0304140006080800C8508F50E336299B9F040000341300003E00000036333436443936332D433437312D343336412D414433332D4332344642374443363331342F536368656D61732F47656E65726963536368656D612E786D6CD5585B6FE238147EDF5F61E5BD1498E9A895A02398AA5D1E2A56
311
65BAAF96710C78D6B9C87168D95FBFE7F81242134A968E469A4855437C72AEDFB965F4F53551642B7421B3741C0D7AFD88889467B14CD7E3A834AB8BEBE8EBED1FA3495108B3E01B91B0DBD1F3EC8E6C991A470F22155A72F73CBABC1D4D5921DCD1934863A11F990102A6F61466977B8AC49FB13C174CB3940BE4504A22E3
311
713489B7F82406516225536940BD88E4E552493E8E564C1522225AB0384BD56E1C195DC26FAB13882C2EBD62E1FF9E5B0FCC453132C99548446A1872B62267078F1EF14C3DB1DD1952DDBBB384AD456779F387C51992E0ADCE12FED2622BC5CB1952FC9BDF3295E9206E961AB116DA7ACE45F76F07A26EFC3FD762FD7362FC
311
3C0BAA4DB34C09E682CA5167BADCD16CF94370E331E2F1A3D852008AAD5D64BA2373478338AEB1583B905396D158182655E1B938D07926CF007CC7E85E6709999B0D3827C0BF406BEF55C68CF5579DA32C8C85BE03EFE788787E8FEC95DC85C3E31A615658D81F9A34499612004CE69CAB12531B15A887ACA642C110F8C1A8
311
C1974A85853F407794695C905C688E69B116550ACA946B9B4785FC179E0E229240B62665328E86D5BD2C800CF5D80289F35AC25E3DD51508F4BF9A74A0F5A557BB3D284BC6FF59312E282F956A75C5D453906F48D11A876599E49425602400842995BDF02C4D012E226658F78A710416AC552831FDDEF0E6F0BABEBEA9DC36
311
718CCEF4DAC5A0DF871AECBDD8F448F015F8DA113A473609D1751672B723874B2CAB21ECD6E284E51DCC7D1A47A00F60EC21DC4CC3CDC406DC03760A4E6C772F2F4D561A9AE58C4B03F5B4838701472139EDCB36819A66C472B52AB1139C648956F43E0DAEC067B56B0818F5961D3D446B8F1E1E78C0EAD7EE02AF2895D813
311
E88AC5014A7B436DBB20F778D40A1D9737EFE45B47D49CC8360F9966B15AABAC802C1005548A93EE469F5D55317CD8BF0AA86CABADB2A009D4D6F60CFE53AE370AFE8C45415B15D362A5A038E766E34B00F8C2E3E7098E2093B1C96349FDAEA158903B4BDAEA665F473FECE72186E3BDDCACCADA31839CD6D4FA7D47DF5469
311
006ED340EBE71DF960DDEE88A3E17557039B58C278A1795BA8079419DA8FC5BA1BAA1A66238BF69C7B2BE4E6274839122B7D00BE8B7D52CF61B2D63216046008C8B330FC10F8907787DEF061F47965BBA02FD8F53BA12F9827614979F53563D0BB1AD67A03DC0E00E2FB2CF3EFB457E70E65A3D7C78E7D700DBB45132AE9BB
311
A5E468CD861408961AD8B00A55C2FCC677F4456039FD9F1907A5B3E2D0EE845FDBA2DAFA88C64195671AD6D282DA2E45B1F50A0D632B0D0B6718757DCC7C84A70A3656F222CDA6DBF07E204AB358961D1BE31E53A82C2C0D56DBF61A5608B5A252A932A1DC6E32462430853353EA30417C8199A662E946A4EF352268B8CDB9
311
A9C6762515ACE8E09BBC031C608A02C4BA89C9DDC074E46E0E26A17BCBD4ED43270D03E3645ADB81F6D62CC07A3243EB81C07E01681DDF2DB4730631E6DDA6CBBD048BE9F06AEB3CF06B31DD6C9575E37E9FF17161342C4C76D95519672A6509E0F5C4E71B4B1916440059F57D0921F496237E473A83E3E4E06353BD9D2759
311
3594D7B6707C08D22FEBDFBFFE03504B0304140006080800C8508F508DFFFC99640100009B0300004500000036333436443936332D433437312D343336412D414433332D4332344642374443363331342F536368656D61732F52656E6465724D6174657269616C536368656D612E786D6CA5535D6BC230147DDFAF08799F5F
311
DB600FADA20EA430D968A7AF12D36B1B481349529DFF7EF9A85A718860DFDA73EFB987734EA3D16FC5D10E946652C4B8DFE9610482CA9C8922C6B5D93CBFE3D1F0291A6B0D26A3255464182D920FB4233CC629881CD49C18508CF000E3EE309A100D61622AAB4A8A33B2483F11CB639C545B0E1508438C3D3C0361192846DB
311
7ACD198DF186700D182920B914FC1063A36AFBEE8FBA03FFD3CC1D1F4FC9E151A2AF59F628C5B7821D83FDFD3489305080F2EE04BF962195FB285E9D2DD352320A9E827AE357594914E42B1F5FE35F83688F60C4C91A6C946ED0668E8F244BC2EB0BA6E3BCCFC0B6A4B507F9F9F8D51EB315D9BA9E08D308E89F96931666E5
311
77837E2B4172199C68C4FE306156D47DF51C698C7B9D97FE5BEFE2190C3C38BB054E6E8163FB039CB4B993C80BF18D969203116D6BBD26238B821F9BB909AD6D9C71B85BCD8C33D66FEA3D31B4BC0AD45BEA46BBEDDFEC0F504B0304140006080800C8508F507113AA4D51000000570000004700000036333436443936332D
311
433437312D343336412D414433332D4332344642374443363331342F4173736574446174612F41737365745461626C654F66436F6E74656E74732E62696E536160607073B6343677B530D135703173D435B13430D475723272D13573333533323435757173331702AACB4D2C492DCA4CCC492C28484D2C4ACC4B4E050A8201
311
2F90744FCD03CA26072767A4E6260200504B0304140006080800C8508F50F865834058000000680000004500000036333436443936332D433437312D343336412D414433332D4332344642374443363331342F4173736574446174612F53747265616D56657273696F6E5461626C652E696E66558CBD0A80300C06F73E4B11
311
7FB66E451741D041DC5BF98480A492E4FDD18EAEC7DD4555D89EF28DF51A0B1BD8340C4DE7DD848B988C0ACF0649566493F2408C508DDEBB99D5129FF8F1AF8CF5B9503E20FAE5A16B5AF702504B0304140006080800C8508F501F1D2F1337010000A20400003600000036333436443936332D433437312D343336412D4144
311
33332D4332344642374443363331342F4173736574446174612F636E782E786D6CCD94314FC3301085FF4A648931B653418590E30AC1D209242A06B6AB7329561D3BB22F08FE3D769B0154C4D4A1EBE9BBBBE727BF53ABCFC1551F18930DBE650D97AC426F4267FDAE6513F5F52DAB565AC510E807C62A0F03B6AC949956BB
311
18A6712E75D8C3E44AD559BF9F8BF729216D60EBF0A97F089ED0536295719052CB9279C701384C143A4C7BDE01016F78C414A668304F223BE03CC94404C28EE9855CC85A5ED7CDCDA691777279D72CDF9428A456DB10DCCCDBBC2C86F16A21CD712FD35289026835453B53E5354CFFA5926FAD5722935A258AD995B983BEC6
311
DC01E3E8AC01CAE6896008A9CE10C2A0C411D64A14177E79F188BDF5B6B4ACB334A0109FB3408C64F1023DF94FEDF9BD59FB44E00D5EB223A71ACFEFC3CBE117BD1E6379C8CDE5A5E55423B7BE3F4356C4E19CE4E894EBA2BF01504B0304140006080800C8508F5040312EE4E6000000600100006700000036333436443936
311
332D433437312D343336412D414433332D4332344642374443363331342F5265736F75726365732F46433933374538342D304436412D343930312D424232442D3646353632313535444646372F7468756D626E61696C2F302F636E782E786D6C4D90C16EC4200C447F2542EA318144EDAA5A39EC4FECA9978A126F8A966004
311
A66AFFBED072D8D358E327CB3370F93EFCF085293B0AAB982725060C963617F65514BE8DAF62B8684844FC808921980357D16CA1614F5462B736BC99E29BEB5DB87773C780C9D9F7187631586F725E45B69F7898C914A60DF37DDA0C9B699E12662AC9623DC0EEC07EC026348C9BD08B5AD4A89EC7F9E53AABB33A9DE7D31B
311
C8466AF820F29D778131517C5A94A53A86FA8F02D9000D25B94EB510423F3C07B22E35644E357F87F82756C8C4E89D355C6B92641979AC109A03E43FAC41B6BC55FECAA8DABAD1BF504B0304140006080800C8508F50A233C2345D000000800000006500000036333436443936332D433437312D343336412D414433332D43
311
32344642374443363331342F5265736F75726365732F46433933374538342D304436412D343930312D424232442D3646353632313535444646372F7468756D626E61696C2F636E782E786D6C4D8B490E80201004BF42E6EE76F3C0F216234B883063108CCF170C074F95AE5473F5C4C06E932E4F28601967600677D21E9D80
311
92EDB002539227A2FCCB80E1168D80A6417297A89C5D6963B7129A0D1E8F2EE73AA7B62BBEB8B27DE50B504B0304140006080800C8508F50BE89762363000000880000005B00000036333436443936332D433437312D343336412D414433332D4332344642374443363331342F5265736F75726365732F4643393337453834
311
2D304436412D343930312D424232442D3646353632313535444646372F636E782E786D6C4DCC3B0E80201004D0AB90EDFD75167CCE820A4A845D83603CBE602CAC26799919AEEEE0D965E2E908050C6D0FCCE04C8BC355404EB6198129C92351FAD580A10E464065907C8D948F8F166375F655BDC3FDC3B4E530A176BE7057
311
BDC43B2A593FE403504B0304140006080800C8508F505028364180000000A30000003600000036333436443936332D433437312D343336412D414433332D4332344642374443363331342F5265736F75726365732F636E782E786D6C4D8CDF0E82201C465F85FDEE2931F1CF06B88C780F97E898088DA4F5F841F3A2AB6F3B
311
FBCE61FD67B3E8ADC3CB78C7819C0A40DA3DFC64DCC221EE336E01F58205EFF7BF1B20376E9A43C620D8127C7C1E68D2F3186DA6D6B8F580EAD65D9A7B5BE142D6575C7505C1C3504A5C2B5A978452A954938C7356D2FC7A69735E7C01504B0304140006080800C8508F50B26C01840B010000550300003400000036333436
311
443936332D433437312D343336412D414433332D4332344642374443363331342F536368656D61732F636E782E786D6CCD93BD4E042114855F654262390C33D18DD9306C616165A35676087777C90277C28FD1B717468ADDC44E8BEDE0E4CBCD39072EDF7D3ADB7D408806FD4C46CA48075EA136FE30939CF6FD3DE9768207
311
C4748691CE4B0733A93211FC10302F4DD2B097D956D51A7F6AE2033A87FE451DC149D2292B639C495CAF54E6841AE2896A99241D698088392828139271D026A800328126626213EBD96D3FDEBD8E6CCB36DB71F3C6874A0AFE8E681B6F7C8280CBCDC41496A32F86181F2A20780EA651350511E7EE68E9830F85103CA6505A
311
6864FA5A0A2997C51A2553296B58C11F46F0A186BD88FC081E8251D79AF9C2DEBF857E06AF213C95970A46DA6BCDFE9BCBBF5530AC1B50BE415D08F10D504B0304140006080800C8508F50E3603EBE7A000000C20000002C00000036333436443936332D433437312D343336412D414433332D433234464237444336333134
311
2F636E782E786D6C6DCD410EC2201085E1AB90D9DBEACE05D09878023D01A1D34A8419C380F1F82DA68B9AB8FDFEC93C3D7C52546FCC12980C9CBA232824CF63A0D9402DD3E10C6AB03A3397DD192872090D3406ABE7CCF5B5D18893ABB1690CF4DCF02282E5EA8A5BB96FFE536F285CB347F95BEFFE81C9ED5AFF9D5B1FB5
311
75BB00504B0304140006080800C8508F50F92DC9B87E000000A300000007000000636E782E786D6C4D8C410EC2201444AF42FE1E95427E35019A5AE23D1A4B1B220583C5787CC174E1EA655E6646769FD593B74D2F178302763801B1E11E27171605799BE91948A7658A71FBAB0109E36A15540D5A2E29E6E7AE263B8FD957
311
EB5D78EC12B94073414E07D1322A38F6B437BCC446DCAEAD1990335116C73A29F8FD15D67BFD05504B0304140006080800C8508F50CA1DF9C9A900000073010000130000005B436F6E74656E745F54797065735D2E786D6CA590410EC2300C04BF12E5DEBA70400835E500FC800F84E0B411AD13252E2ABF27A55740421CED
311
DDD9B55CEFA7A117778CC979527255565220197F75D42A39B22DB652EC9BFAFC089844F65252B2630E3B80643A1C742A7D40CA8AF571D09CC7D842D0E6A65B8475556DC07862242E78CE904D7D44ABC79EC569CAEBA537E3521C16DF5CA5A40EA17746733E0B6615DE7217475F386F18B9481C510F1F021CD9FF027EA0E1F5
311
C4E609504B0304140006080800C8508F503DEE336E64000000790000001B0000006175746F6465736B2D64657369676E2D7061636B6167652E786D6C35CBC10E83200C00D05F21DCA56CA76D41FC96062B120735B69A7DBE268BB7777961F8D5AF396893C2ADB70FE7ADA196782C2DF776D7A97B5933C430F15651E5469C55
311
D70F80A4992A3ADC954792C525AE70A1E4D6AD9816CC044FEFDF01FE3FDE907802504B0304140006080800C8508F507BA90734F8000000960100003700000036333436443936332D433437312D343336412D414433332D4332344642374443363331342F4173736574446174612F636F72652E786D6C8550CB6EC32010FC15
311
6BEFD8E024761461223FDA2FE8A93704C44589C1E251F5F30BB12BB5A79E76353B33BB3BF4FAB53C8A4FE5BCB6A6035262289411566A337710C30D9DA1B832EAAC0DBF685018BEA80E320C8CCECEC67587843541998C1A2BD50E72EF5580423C52D381171F6AE1258F2131FCBD5CB9B8F35995A4DC788CC6A8E52ED532B9E9
311
9B560E187E19CE236E26743E35041DFB96A061685E11EEA7761847D21EFA895659CC68D0CBCF76E1140F4A02AB718D113E22727A23F8829B0B69DE6995998CFAE0D2CFFBD2FC1DB03E5F3DF1C069B54DFFB8C655FEEF1AB509877A77DD141E1849473E078C5639A5549E11A69A1365DF504B0304140006080800C8508F5017
311
9A8716F20000008E0100006800000036333436443936332D433437312D343336412D414433332D4332344642374443363331342F5265736F75726365732F46433933374538342D304436412D343930312D424232442D3646353632313535444646372F7468756D626E61696C2F302F636F72652E786D6C8550C96EC32010FD
311
156BEED8E024761461222FED17F4D41B02E2A2C460B154FDFC42EC4AEDA9A7418FB7CC3C7AFD5A1EC5A7725E5BD301293114CA082BB5993B88E186CE505C1975D6865F34280C5F54071906466767E3BA43C29AA04C468D956A07B9F72A40211EE9D181171F6AE1258F2131FCBD5CB9B8F35995A4DC788CC6A8E52ED532B9E9
311
9B560E187E19CE236E26743E35041DFB96A061685E11EEA7761847D21EFA895659CC68D0CB4FBA708A072581D5B8C6081F1139BD117CC1CD8534EFB4CA4C467D70E9E63D345F97E268B5A17FDCE22AFF778BDA8443BDBB6D0A0F8CA4E59E1F8C56B99D349ED5A5999B64DF504B0304140006080800C8508F501B673636FA00
311
0000960100006600000036333436443936332D433437312D343336412D414433332D4332344642374443363331342F5265736F75726365732F46433933374538342D304436412D343930312D424232442D3646353632313535444646372F7468756D626E61696C2F636F72652E786D6C8550CB6E833010FC15B477834D1288
311
22E38847FB053DF5E61A8758011BF951F5F36B072AB5A79E76353B33BB3BF4FAB5CCD9A7B44E19DD00C93164520B332A3D3510FC0D9D21BB326A8DF1BF689069BEC806120C8C4ED684758784D15EEA846A33CA1DE4CE490F999863D3801377B9F09C071F19EE91AF5C3CF82473926F3C464350E32E5563745337252D30FCD2
311
9D7B5C0DE87CAA083AB635415D57BD22DC0E75D7F7A43EB4032D929851AF969FEDC24AEEE508ACC42546F888C8E98DE00BAE2EA47AA7456232EABC8D3FEF4BD377C0FC3D2C1F9AAB9916DBF48F6B58C7FF5D83D2FE50EEAE9BC20123F1C8E780D122A514CB33C25853A2EC1B504B0304140006080800C8508F5034D7F0FD0D
311
010000B10100005C00000036333436443936332D433437312D343336412D414433332D4332344642374443363331342F5265736F75726365732F46433933374538342D304436412D343930312D424232442D3646353632313535444646372F636F72652E786D6C8590CD6EC32010845FC5DA3B36383676224CE49FF8097AEA
311
0DD9C44589213250F5F10B892BB5A79E160D337CECB0F3D77A4F3EE56695D10D90144322F56466A59706BCBBA21A9233679B31EE970D122D56D9409481B36533FEB14B93D14EEAA86A33CB5D14D64A07C9740F8706ECF42157910AEF82C3DED287986E629129495F3ECEBC57F31E5573784D5D95DC80E34B57F7980EA82E29
311
41455B11D4757444B81DAAAEEF4975680796C530674EAD3FF46993C2C919788E738C708148F946F009D313A1EF2C8B4ECEACDBC2CE3B346E077CEC8F87EA5217080FB445C511475C3E203A96342765398C63C5B257F00FD03FE6FF815E6977C877E02B618193F0FFE70567592C308C67BB61C6B2F937504B03041400060808
311
00C8508F50EFF56069FB000000960100003700000036333436443936332D433437312D343336412D414433332D4332344642374443363331342F5265736F75726365732F636F72652E786D6C8550CB6EC23010FC9568EF4EEC0049841CA304DA0FA87AEACD729660416CE447D5CFAF0DA9D49E7ADAD5ECCCECEEF0C3D7722B
311
3ED1796D4D0FACA450A05176D266EE218633E9A03808EEAC0DBF685018B9600F1906C16767E37D859435014D468D9D7005A5F718A050B7D4F4E0D5051759CA1812C35FCBBB54573963C9CA274FF018F5B44AF594DCF459A303415FC6EE489B13E9760D23DBA165641C9B574287533B1E8FACDD0C275E65B1E0412F3FDB9543
311
19700251D39A12BA256CF7CEE89E367BD67CF02A3305F7C1A59FD7A5F93B106FE86D740A3DAF9ED33FAEF13EFDEF1AB5099B7A757D2A3C08968E7C0C04AF724AA93C224C35272ABE01504B0304140006080800C8508F50BCD57F4BF8000000940100003500000036333436443936332D433437312D343336412D414433332D
311
4332344642374443363331342F536368656D61732F636F72652E786D6C8550CB6E833010FC15B477834D12409171C4A3FD81F6D49B651C6225D8C88FAA9F5F3B50A93DF5B4ABD999D9DDA197AFE5917D4AEB94D12D901C4326B53093D2730BC15F5103D985516B8CFF45834CF345B690606074B626AC3B248CF65227549B49
311
EE20774E7AC8C423362D3871930BCF79F091E1EEF9CAC59DCF3227F9C663340435ED523545377555D202C32F7D33E06A44CDA922E8D8D504F57DF58A7037D6FD3090FAD08DB4486246BD5A7EB60B2BB99713B0129718E12322A77782CFB83A93EA831689C9A8F336FEBC2F4DDF017B7BDEE968B1CDFE788675FADF3328ED0F
311
E5EEB9291C30124F7C0E182D5246B13C038C35E5C9BE01504B0304140006080800C8508F5096EC9D9F00010000D80100002D00000036333436443936332D433437312D343336412D414433332D4332344642374443363331342F636F72652E786D6C95914D6EC3201085AF62CD1E1B6C97B411264A63F5045D7547CDC44189
311
C1E2A7EAF18B6B574A77ED0A78BC6FE0CD88C3E7742B3ED007E36C07ACA450A01D9C3676EC20C5337984E22085772EDED9A0B06AC20E1619A418BD4BF3260DCE46B48B6A9DC64D5421608462B8E54D0761B8E0A44A956276846B39ABE1AA462C59B9FAA48866FA41078F2AA20659D39A12DA12F6F0CAE89EF23DE36FA25A9C
311
52246363536F8FE1F48EBA7073CC9132C644B55E675B327A33199D3F69CE063D48DEB4BC7FE20D39B53B46DA861FC9B16FF2B16E5F9E77FD8937ACCD45322C45883EB7662BB234E1AFF80AFE8A9666FDCF682B1140DE85AA963E4B517D0F21AFCB4CE417504B0304140006080800C8508F502AF4CBC707010000B201000008
311
000000636F72652E786D6C8D504B6EC32014BC0A628F0D4E625B1126F2A73D4157DD51200E8A0D9681A8BD7D2176A576D7D54333F3DE0C432F9FF3041E6A75DA9A06920C43A08CB0529BB181C15F510DC185D1D55AFF4B0681E1B36A608221A3E36AC3B243C21AAF4C428D956A07B973CA4320A6F868A0133735F38C071F15
311
EE9E2D5CDCF9A832926D3A46BD9E7F56C5AAB85712B2021718E12322A73782CFB83C93F29DE649C968085AEE565A46777DD56A850CBF74758FCB01D5A792A0635B11D475E52BC2ED50757D4FAA433BD03C2D33EAFC1AFFBC1F89393D70FC917C69BE518C7E583BED82184A026BA6AF6842F344FC091D16F98FD0DAF843B11F
311
DC361C6424067A12D1383518C7B3DE3853DBEC1B504B01021400140006080800C8508F50F50EF02011010000A80100004F000000000000000000000000000000000036333436443936332D433437312D343336412D414433332D4332344642374443363331342F4173736574446174612F446566696E6974696F6E49746572
311
61746F7250726F706572746965732E62696E504B01021400140006080800C8508F50CCE6A3FAEC0000003002000045000000000000000000000000007E01000036333436443936332D433437312D343336412D414433332D4332344642374443363331342F4173736574446174612F496E7374616E636550726F7065727469
311
65732E62696E504B01021400140006080800C8508F5088E57597CD3F0000904100006B00000000000000000000000000CD02000036333436443936332D433437312D343336412D414433332D4332344642374443363331342F5265736F75726365732F46433933374538342D304436412D343930312D424232442D36463536
311
32313535444646372F7468756D626E61696C2F302F67656E657269635F706E67504B01021400140006080800C8508F5028BB58AF800100009E0500003D000000000000000000000000002343000036333436443936332D433437312D343336412D414433332D4332344642374443363331342F536368656D61732F436F6D6D
311
6F6E536368656D612E786D6C504B01021400140006080800C8508F50E336299B9F040000341300003E00000000000000000000000000FE44000036333436443936332D433437312D343336412D414433332D4332344642374443363331342F536368656D61732F47656E65726963536368656D612E786D6C504B0102140014
311
0006080800C8508F508DFFFC99640100009B0300004500000000000000000000000000F949000036333436443936332D433437312D343336412D414433332D4332344642374443363331342F536368656D61732F52656E6465724D6174657269616C536368656D612E786D6C504B01021400140006080800C8508F507113AA
311
4D51000000570000004700000000000000000000000000C04B000036333436443936332D433437312D343336412D414433332D4332344642374443363331342F4173736574446174612F41737365745461626C654F66436F6E74656E74732E62696E504B01021400140006080800C8508F50F8658340580000006800000045
311
00000000000000000000000000764C000036333436443936332D433437312D343336412D414433332D4332344642374443363331342F4173736574446174612F53747265616D56657273696F6E5461626C652E696E66504B01021400140006080800C8508F501F1D2F1337010000A204000036000000000000000000000000
311
00314D000036333436443936332D433437312D343336412D414433332D4332344642374443363331342F4173736574446174612F636E782E786D6C504B01021400140006080800C8508F5040312EE4E6000000600100006700000000000000000000000000BC4E000036333436443936332D433437312D343336412D414433
311
332D4332344642374443363331342F5265736F75726365732F46433933374538342D304436412D343930312D424232442D3646353632313535444646372F7468756D626E61696C2F302F636E782E786D6C504B01021400140006080800C8508F50A233C2345D00000080000000650000000000000000000000000027500000
311
36333436443936332D433437312D343336412D414433332D4332344642374443363331342F5265736F75726365732F46433933374538342D304436412D343930312D424232442D3646353632313535444646372F7468756D626E61696C2F636E782E786D6C504B01021400140006080800C8508F50BE897623630000008800
311
00005B000000000000000000000000000751000036333436443936332D433437312D343336412D414433332D4332344642374443363331342F5265736F75726365732F46433933374538342D304436412D343930312D424232442D3646353632313535444646372F636E782E786D6C504B01021400140006080800C8508F50
311
5028364180000000A30000003600000000000000000000000000E351000036333436443936332D433437312D343336412D414433332D4332344642374443363331342F5265736F75726365732F636E782E786D6C504B01021400140006080800C8508F50B26C01840B010000550300003400000000000000000000000000B7
311
52000036333436443936332D433437312D343336412D414433332D4332344642374443363331342F536368656D61732F636E782E786D6C504B01021400140006080800C8508F50E3603EBE7A000000C20000002C000000000000000000000000001454000036333436443936332D433437312D343336412D414433332D4332
311
344642374443363331342F636E782E786D6C504B01021400140006080800C8508F50F92DC9B87E000000A30000000700000000000000000000000000D8540000636E782E786D6C504B01021400140006080800C8508F50CA1DF9C9A90000007301000013000000000000000000000000007B5500005B436F6E74656E745F54
311
797065735D2E786D6C504B01021400140006080800C8508F503DEE336E64000000790000001B00000000000000000000000000555600006175746F6465736B2D64657369676E2D7061636B6167652E786D6C504B01021400140006080800C8508F507BA90734F8000000960100003700000000000000000000000000F25600
311
0036333436443936332D433437312D343336412D414433332D4332344642374443363331342F4173736574446174612F636F72652E786D6C504B01021400140006080800C8508F50179A8716F20000008E01000068000000000000000000000000003F58000036333436443936332D433437312D343336412D414433332D43
311
32344642374443363331342F5265736F75726365732F46433933374538342D304436412D343930312D424232442D3646353632313535444646372F7468756D626E61696C2F302F636F72652E786D6C504B01021400140006080800C8508F501B673636FA000000960100006600000000000000000000000000B75900003633
311
3436443936332D433437312D343336412D414433332D4332344642374443363331342F5265736F75726365732F46433933374538342D304436412D343930312D424232442D3646353632313535444646372F7468756D626E61696C2F636F72652E786D6C504B01021400140006080800C8508F5034D7F0FD0D010000B10100
311
005C00000000000000000000000000355B000036333436443936332D433437312D343336412D414433332D4332344642374443363331342F5265736F75726365732F46433933374538342D304436412D343930312D424232442D3646353632313535444646372F636F72652E786D6C504B01021400140006080800C8508F50
311
EFF56069FB000000960100003700000000000000000000000000BC5C000036333436443936332D433437312D343336412D414433332D4332344642374443363331342F5265736F75726365732F636F72652E786D6C504B01021400140006080800C8508F50BCD57F4BF8000000940100003500000000000000000000000000
311
0C5E000036333436443936332D433437312D343336412D414433332D4332344642374443363331342F536368656D61732F636F72652E786D6C504B01021400140006080800C8508F5096EC9D9F00010000D80100002D00000000000000000000000000575F000036333436443936332D433437312D343336412D414433332D
311
4332344642374443363331342F636F72652E786D6C504B01021400140006080800C8508F502AF4CBC707010000B20100000800000000000000000000000000A2600000636F72652E786D6C504B0506000000001A001A00210B0000CF6100000000
310
504B0304140006080800C8508F50000000000000000000000000370000006662782F31303932413644412D304133352D343136302D393334382D3044363846444232323035412F617474726962757465732E62696E504B0304140006080800C8508F50000000000000000000000000350000006662782F3130393241364441
310
2D304133352D343136302D393334382D3044363846444232323035412F76657274696365732E62696E504B0304140006080800C8508F50F270F1330600000004000000360000006662782F31303932413644412D304133352D343136302D393334382D3044363846444232323035412F747269616E676C65732E62696E6366
310
60600000504B0304140006080800C8508F5088E57597CD3F000090410000420000006662782F31303932413644412D304133352D343136302D393334382D3044363846444232323035412F7265736F75726365732F322F305F67656E657269632E706E67355B773CD4FF1FBF73E71C0E67EF7576C9DEF3EC995D46C6A1EC50
310
46649CBDF79E192942562825CE965D8A868C2842C8DE9FDFD1F7E7F138F7078FCF6B3F5FCFD7EBFDFEC41B196891913091804020321D6D7513FC77D8C5070EC3FFEE51B21F068154CC75D455CC028A3EA68992803810109FDDE5D5CEC5521B28A1B422BF80741695D5B529DA1C2D058AD2388BDA9F476F7C2CADC939304173
310
DBF48A452BF8A700C0C70C3D121C1AA15A5270C22E2B9E28763651F7DA0D12CE11077B2ECD0D560B5E3DE2368B1E65C5E1C87384A4CC5F2D9FB8BE39E9B77C753783A37998F5CEF1B4FEE553463245C9712270880DF339E0B882A6BA713D865F6F384C842D440934EF264F4A304F8DE4EEFA1E2BF5E2D91F5ADD9613D6E31D
310
DB33ED31DB1D7916CAF091286EA3D31B9CFECB78BB0060245B943C4C040119FF780A74DD308BA9D028678674EB5504ECF284EE814DAED07440BAF649BE4B55DA2890F4D73E2D489A59EE54FDB0A85B59F2F52C4858A02705C4815A792B0C4A996A2023ECB195073E115E3E3647F64243A8338F2000BCB58DA5692C7E7C3D41
310
3F963FEDF3CF00FBB0F831A9D51360FECA43819F527B89FA260EB63C5DA676830AA3626A3693B23F1A17A0DFFCE3EE164E31B5365EDF0C89EF64D8E38AB0BA9A1117D7C3A0EC44F44F4023095E80BA610DE336D0F99593A88BFC5306E72DF98F7FD132ED95878DF2964EA7E43071359FD83B2BDF9C6B5BDF768F0F3C0FC351
310
199526F53D9460A34511F75D1B63E488178569472C91A94497807A3FD4A390C6558F26D416365C3656DE6E769DA9D8FC73774E1709812842DD8EF96AED1960F79D21B395CDDFE6F92CB4EB962A4668C76990E2EF29798C8941D67DA50F4A5F947872460F1F6FDB794E8A29FD7AC0C0D6E0714339CE258FB17AE8535221E346
310
4A10F29A0BE5EEECEFC5675926A89F49EB14E5711894F6586DB5754EB4D5DA9C6437EBA57DB97A24F8B8A8DB295FFD73266CF57E82694DF5166DDF93573AFE9C9C5EB05F8FEF8E89E0A8917B0B3724DB7BEBB53252581EFC3E38166BA131A3A5B42FE2AD00A769BBFA4458D2DE7822F8C4F63D0B8E21B285AE13325F3410A4
310
35C648C9D91FDEB109E73CEDA7BC796961AF79175E1A3CE4C5E8B0D009B0C9E29EFD98BC8E97554E3D8D838424E270F7685226E5AC268E021EDE3522D583E8F20C0BDE2959EF5BBFEEDAB32FE9A3ED0E39F211A86AA9DEBFC68182EDED132AB8BB794442D2D7EA9F4D8BFF52BC4D55BB165124EE90A42D101E67BBBB292FFB
310
4F66DE5BF2300E44546757DA7CEF8932BFC9F92A0707953491A55C5A5ACEDABD9FA1AEA01BAC3DC5A24E22E7C47213493996EFBC369D086ED9397C9BA6C7F9855C7BD5E15BFC8C53DB3D2A4C5901A57ACD2FBDF4D1676E95338B2C2BCE65FDA4C64F5FEFDC7D9CA5AA1FCF11E193F2FDABF0F4916BF13FB916A224380E6462
310
A9815F2300DC49CC4DF8D055CEF76462F4B7A7ACA7365C2707891370BC1D0AA6203C44CCAB47084FEC057F27FFCD57F89B8B9852459798A675C66BD7CE572CAF71FF7E6D7ECF7BF62CAB7B3F1107DCD04DC55A3F9961700286141C94A4F771FEB2BCDA2DDEE0CB0BAE402FF1DB0100F8E475DFFFC074DDB4498AB7D186A765
310
4DDB1CB680D703D47CEB4E72F8CB13D86A4AA68116E26387B93FD6738779B34FEDB8E517EDF2BAF28D9BE93A1D3A164320E07D42E514725C29515FF361754213EDE06B079A2E99EB1CA82A02019EADEEB87B9AF005BD04BBCECB14AACD6B24EFBE482194A97DD32400685FF1FEF1544D1B14EFB1E7F08E6D2CD2AF52DE757F
310
35F5E62332EE88EA26417AD5C3E0E319D68F25414E6D672BD4522B278C57D18F0113921C71D96527E091F00CEB15AE23D24667369BD3CEFA10C7549D930890BA4366F4EBC55F01F746109F98ABCDD5A3EE06619C6AD78AB33E48E4C9BD21BF7478B385EC05C4F8987E2C1BFA0A60EBEDAA0AE0B015C2720ECE180FB6F2DEFB
310
EB822D96338C9B63822183BBF52FB664A7AE57003AABCE512BF77E7E31BDA2E739AC4C131657DDFE5225E900FB56CC01CDE808FA4A9C9DA16AC679656BB64796283D89812B8F91136AE18EE5EBBAF47A73BE3C153EB5D4CD491B4BFB4FE690A4CF9ABA08C0D8AA64220C438C96EA6CA80B58FE5761E697B3A292EB9FBDA502
310
FA863E49FE694ADDFFF9D62C520BDD1A22014147A0903A05B9B729F54272EF83931FEEC057BFF8C8055C279EAC5C0011804828734024F6CFA319C9CC6867C727184465CD9BB7ED386AFFD96B294A85E3802FAE47244602D8273615952B98C4F23F7EAE4463D9D638EEE374A20959E0FE519C4CFB0FBFE5DD80C2AA3F9DB961
310
D1BDE57E67C9BB47B77FDD74EE3094F5DBBE3EBC1FBDB7393F5116263009E2EFE1AF9A221B2AE234C902BF70E9F280ED23E73908361565964333A3F01D0B006AF32FB21AA1316744B489D5A198E85299241735BE559675130955C902A8ED761FC0DBE337A9F91919AF5CE32AF902ADF9AB2615E00E8A94586BA1A90839B618
310
32FF1BFB76D2EFADE6DB1BA04CCAD3DA649E7E2A0219F592E22F2AD54847EEA8E42271011E9074F8F3DD9FBA6CDF88FFC9FC7E811AD1CA8F4557CE4AFC7BBEDCF0114A48689F20A584520C74DA8127124B767E2FB91A6B186246727BE63C9445BAE02088D58B8EFDC0F1072407CD9B89A13F6303B4A928F593AD489B58E686
310
9325790ADC406036C591729FE14021F94B7796BB11848D463536A092A26F077F94639F7CEEE2A724C66EC885F4A24F8B8A0AC321F8FD149BA529460FAA34E4663C02D41FDF80BCA222D42F0ABFF8490F4FA74C673807C2051D8E467B47B616072860069A9A303ABA9B319D58404461401B0A0F9BE5E1E151C14BC33B32ABE0
310
3DDE91708DFAEB15E7C0D593C86BB7D7EC17BE56E57975F077BFD5525F3A1A361D584A75E08CF29FC7B44B2B3085014F3A5A14517377C3F6B8F37E59514C3B12F8AACDEDDA4DFC49BE5710101534CD6FB6DE15B50F11A09472AABA727F0C49D9CB906B158030065F48EB3625E010CEC1D511D0053474B11E6A4F01C0D6EF1B
310
ED3A944FDEC70E0DDCDC756C86545910E0DAE3BE3AA9A404574C2995CD5CAF9549226BC94B4F4F0F5F9086F418F6B32346464610D8BC7391D3C3A3CCF04CFC1FB2A3A3170E369511868F14EEA4E5E438CC73DB1F3248AA94B6B2FF33B222FF3D1E7BF146CAD229770158063BCE4F5391964DF62F7E52A7BE0EEA829C9E13C4
310
C147D6F93FE59E111DAB5E4594D6F3CD1AD375EE039930EFE5AF2BB2D41C83C7DABD8C659BAFBE8FAB392CA634F3D15C1D945DB4588D2B0824A4EC928AAC565557CA2F0DAA588CA5BE30B3A8004F7BF005E96CBF891D7F18112A3619FDF530DC8AA64954258E1811789B5189B49B4EB53F5F89F7D37523894F3EB57B373763
310
C91E502F52CC99EB7BDDF933FC324C4FFC2561DFFA7339FAFDD0A4BFBE6D3A8FF9ED1FC49898139864602458968913181918F719CCF5A68B2EE9C1FF050E34E63107003B8120FA982C21B30A874E4F5E4B38D5A8290C4B8D9BE48A0BE31EA995BDC37AC6DE90BA17D259DEF53605D55922FEB1855D915B659FBEB350EE0DFB
310
2F9F766E1C84CC8964B75D08667445EAB966015F63A18A9E0A325C1B3DC628C0D3CB60F767FA93CC65F25458BD23C3B312716E5F40E5858AC06EBA9AB14F95DB99147B832069201541D09A0D856E12C629CF32683760EE855537D1901988D5EBC156676C7DD51D7207CF3267AF1D76C2AD867315E44618015313A98B19941C
310
696FED3461CAA9B5415F918556D7802EDACEFD6B2E45853A9735DFC9DBF7E440F9319F8B6805A973BCCDC76C069A9144E51F187EDCC12FC31B5DEAAF0A76137199B106EC84ADA6B6EE697D4E6A96E007417F4E880E8B1E89B4BCE9D81EF611E2ED8F0C1A6C25F620FAFAAB656A7C42D464880E8AFAB0E0FC8EA38CA9A8AEEA
310
EE3E4648BA4680270A89743CDD3E6C6CBF34B7B640EFA285ABC7EA0A1E28F3CC963D114A80123EE66D0AF7D5380EB41909B605AB4765B709B808590458157E69BA1378FEC4B48CAF6A730E3BE3C5EF2DD1A5EAF94B1DDE50CEB55DDFD7EE9A16747FA4B223359FB1FCC69E1194892BABB93A1D5C4E807AC0EA2E30180811E7
310
7A2291F6E7F7FAA5E0F60215BC6024E48DE436C511F0628B8CA189982D4D83CCA17D305A7E923C37941CFDFDCD93ACAF735EF5F0E61BBD3E6C41A59B242790D3A3BAC7064DCD89AA2E37214EC839820949D5CAA31E240D2948E48F690298974A96BA9A8432BC90F5071D6537C9666EA4564796B7AFFFA548077BEEA75F6308
310
3435074BA182F3699557397F71548383FDA8CA34D99B981E72835ECDA5DDDC151315173D05A21F651AAF8524E88209E2E7A737ED1045800CE3390050BCFB8BE588DF111617874C62575039CA588EEFDEFEFE319B739DE2EDC147092A262611E159650E787917885EF08F1F51B8F2D8A71D60B58B190FEF9541A1BE94BC19FE
310
A50784DA1419FE4B0FB51B8D36B5FF8E1286FD8AF42B91E59A5F1CC4D60174E764045FD8C57B18209B217F89A62252BD20BE0E63E12B8E8F029FE19E0E8D0870F58721A557082250D5424F7909369376E41666C0EE77CD87CB283F661D5FB6D0DA023CB67320A20DC7BE661E9E1BFE5463085C557DA1FF9BE835733766C3D1
310
39F2CF9E2208873AD0EB4814DE9E6BF2CAF81614D4D43906ED1C05A3265CABBFE192770FC2F64F940CB6B17B5F166F133C9AEEAD2641807C3E69515171DD74C4A85311513D6EC9530B3B601B6BA3EBFF3B5C3D2F7D69765141E345F75433953D013ADDF8F6AA7DC3F4A7563FE5C7D367937E2900D7EAD0F9FC9A4A1A9B5BDF
310
1FEF08532660C01C5D6DE22199AA774383E306DAB87E301ABB7D213887F9869D4942D0D71E94B27EDF216A318BD488D45DF84529EF575AF3C3938C0AAA0215B01994153E2054A0B894DA5C784980633AAD48576957CF4AEAEAFADC7C587368551C73DBE1E57C58AC713303A8BFC258BD04B51724459FF9E24C03A81E0E0679
310
CEB9B348C0DC998FEB9C6D6EFA77D247CC8F92D3848599ED89A23218D0636465AD1CEEB7DC140D7426F83491C4E8E8281C2FB35240918FFECE880CA2A42D70E8B20B34DF5221C7DB0CF90ECCB9C745B37A47E9B716FF7A97B7A252C1F3814DC7B1E1A7F72B8751D524EF7CAE45B0C73B3BE7D08ED39781B380DDFC9AA4A474
310
9C9493DB5BAD07A6EA6C092FBD0E85DB004DF06B8C9D3089C5320187E4CE1846158C7EA7DDAE8AD9AFFF21AA3A1026BB06A259845E8232DEE62811A4DA9CEAB3A4887320B76E2AE5615EAB7BDF738CBDD01F1E64064BC13D9EC53576751CA8CACD58B3CEB0E6CA585BD089B2A59B9FC101403387AADBDBE70586B93D64BF3A
310
D4453EF9C3B6A93817E8346991798601344F79A83C51F3D50F7BF2683A3605F51A72449489E0EE6169C749C60B1035651103AEE24D24E51A759C840DD3FC6504DA6FE107510E447B43461C79D22970B75DE5E1BD3007D1AFC619A4A4A69B5626AF5E9B8374E20677F77E2F8E73DF868E8BEC7EBA7B6A75EEF7205E1AB9486C
310
B642741D6E03FF13FCCEDB1C4AC129886268B01CDF4B124AF797CF784F3C6DEC97A17D4B558070A0F1C04DA4FF9BDBF34159AEFE958479824B3F58EBD1E19088A2AFDE501B6F2052368A3FD0E650A179EFAB1561E1D27527077136E652676C3670F42DCB3352F48F6BC86D2C3B0051727E41A0A4DC6CE2BE9D47F5CAA2935A
310
3C0539AF080665997194ABECD723B08129CC5B6B21D2E7D54CD4D12610E7E9FB8306771A89576C7A982002775ED44F3F744CF21EEBB27A631671D921938AAEE3EB0D19CD1E083727F607823E817BF599DCED5394E37EEBC2E88782E638920CA641EF74D4CDFCDEF06F4278ECB18E31E7E9876F2D783C8BF429C75395F57E98
310
C2B495A3DA077EB3AC3C158608B6B57FE3EA48484D9A480096FCEE0DE880950E7E5A5714131C5C41AAA29FD19AE81AC145FA1B9E85C7169A5AB837B213493DF7E9AA4B5FBF9CDEB36EBD21EF1181B7CF7366AB2A951D01E37AF4EB835D1BE8C117CFBE7625D2EBCDB0B20C5A4B45CED0BCDE3EE8DA9DA78C2E21DEAAFFD119
310
7E463C33CC6A80FB785669B856EFF7A8CCCA2841B5A5369173320B1170C368B2748D81062EA0296E5E2D95D7667A4A46D98A6FF475C76AAB0A8C8D45E226FAFC9FE0133EA9F60111F99CA81ACE03A1D14C89E8B0D69079C91464FA1D99E651D0EAF606F345C42A8A1AA9BA391031582B96D5B4176A77AADB01F12FD298A75D
310
EEBB2C82F0B8650E880722F8DDD90C56A7A058E5FDEF1AC93545BA27367C76F5D8F9690CB6F8DAE141EDD7971F0FB548A2AE435F224D6E5954CA155512F7332029D5A1230854B79F258EC5FFDB09F5F6343A8EB193229B7F7E79B3E48F8E183860B38C8269D1B53738FF1E0BACF6AADA6D4869E9DE708E79B5DADCC09B1BC7
310
6F649731CFAF59A83FD8BAE4C749D66FA87A3810D4D62FFE826FA400C0F325D2BC0F3CA35F5847B82A2ACC7961745C823E4D863D54460AF792CE6F79B5C7A33B25C3AEA6CDE15A919B6367D781E9D44F61BF828672594A3E1D9EDD6DF179A81F27EAC05B936575D73E05C209DDD2115CFB705DF9BBF3C911589B3640735E9E
310
618FC9C36A7326C82B2205E244C55D56FDB9D5DC93CE958D4BF8174D2B3DA54CB3C09F2C2A6DFF73D23B2197355761AD421EC581284A7EF8DE2CE3497C0C804D49B41DFD6A7360844E5BEFFB495CFCDB97A4595911CDBA623274CE852B5E278AF0BEB1770E9D37CD977B2766A7DED0E94B840E1E95E8C77DE5CB6354AF7871
310
427C28ADBEEF7BA0A28E19DE9ACD75F379FE373EAE6DDDAE3834692F9C2B03B4FCA8FCA9ABE8EEEBEBB725B88A7C90941E850682CA04061A7DF0CE82ED49BFAFFD42C309818FAE14755CAAE78B0F73243ECCCAD7DF58FCB9CDFAE7A4D3E6671A613639130D056C8383C8F4FCF4808C331E544DD26E4755D09EA05253B3049A
310
1E32587CC25D72E073E2CD96D04A71BBCB0038FEC3F53D254199C3CDC67CD66640269431860225392B2CB3ECD0B4498AAE78BA1994246AE1EE78F2EDFB79F6C6CB6B5E279C4D373FBC21CB2698C9ACBBEB6A4BB6B39E16AB0E421CCBFC7654D81ED86022F9BB522146F9F4772E2D0E4FA70120C95A85A417BF5078B232F475
310
4363EB1750B2AC2148EB46B1EA72AD9B4D23ADCBC589D70106C3EC2ABEEED84DFE28E718C6C83502C28E9FDD3B09DA0A6F6F7B72B706A31C9E2A331EE70DA56A083D2177BFD63C55B11D8D949FAFCF90B23A1E24B9B5018B9A17E99F2890EC302F330FE7936E2C23F0D237EC8916F5166AB84B62A21BB0B950146962D754F9
310
2CC2C8877BED8FC7B7B25726DD19545392570B3A2C66B58F027BEF412E552D12A588C4A3CC5C3193FCB3485EFFF700D0B9EEC077754A33DC1FB9E25AF814628F91DDFECB667D3F7690803F38D13F8AE39353523BB08FC6760144AFA2CE28236F65EDBB3D5F59A57D612B99E3D7E5F8A851666BF9B5A6658EFC96EEB37A378A
310
BB0EB3FDDF1303AF32C41BD1C8560745D7BD81066B0D6313359CF488563D3BA3F8E2185D1FAA3EBA1397C9D0E3DD232180A4DCADB6AF25DB3AC3CC26589C8239E66E81547BC7E2F328F9884764CA37EB5DBE390DFC03A5246B456A7C3684C4377D0EEF9A350680FA9A077E8B2957B489E09AB1AD41316944C2254B5984830F
310
691C93CAA767EECF976FA5647538830B5E63236A6F0365C1E0F3E327F24FE35EDDBD7360B0F7374837409F7A6311BECC12B7026D4FA1AE204FA3F5FE904B1F420C7A9044AE58E403E7C4848E7DA25DC9EDAC79DD756FAA26B9EA83ACE8A214A2612A22AFA19DAE7DBAC5F8CDE1292A485F98DAC731A29FE01A3966E96BCB9F
310
B5A4C8830E1B9AF0C54B87FBE221A097036E5D28D1F869F810C06A9BB0AC0612F69AEBAF893C6E7AD59460208BAB3A6B09CA4F6BDDAB8CF0D1F84B72487498395A70DCD754796E271099A567A55CF242BBED64696378BB6CF25EF0FCDB589F3A82F1116D010A9AB9FA4358809EE0C973A2B4229BAA876A70B03AB49CBA7FBE
310
71DB1832FFD32F9BF2C8E98075CACAFB36921235D0F552B6A67E94E094097A5D7DF681B40623DA535ADA7A9AD8E9A62407D7C9A5AE51D62A17A83A23728DE86BB56115804D3F2675F2C6B87541A0FC497BF0CA86420F558C9859EBE9FAD62747E323E3AADC03FDCDDFE7407B09DA90B44E3185723C5381EAEF589765E2F7A0
310
99BA46695BAD60CEF3491B8A171F5F56444F7CE9455312C3498C74173AEA0214EC029833B34B650CBB5A5508D5091665309642791708ECF27CF11DB3D797D6CFE474453BD4BFADB768094B2147814D81C7CBAF8228DCAF5564B5891F5EF6A860EB2E323CB82AB868D8EA048880D63B0DE5341F1B3D53297B928A11E15F25E5
310
148990F710747C3509ED14909C552EBE3973246FCE55D00564D8310BC3EBC5085D08D806799B77D6C57FDF5E55837F9E934F09C03C729271B64F12D0A9F9E938107CAF7BF1EC8CF1BB9B42363D33070F4CACB425E605DDB0A34A12BB936DE286B9887A4E2E558F0886498BFF49C311D96C277CF6A9FC0D75AD0ECC5226D7E0
310
E3572012E56D7FDE4410CEC7A6D0F997F225A2055B8B92E3956E875AE4993CB3D4C9063AF98FD45E1BAB165640A43439A2C9181A7C355B297C0A0CCFFAE19B6FA3C2BA238A885FBC98B8F6DAF4B94B97304878DF4D8BFF6A4AEDF79E90ED4E68F00CD7299F4E0D83E35601AF0CBEF18C1E870E74758FA91F5131075004DB3C
310
FCF09AE1DABC11957FD9808C92E8A678CE9DBE40DDA0E0D1D505AAFBCBA208232BFB6FB3704E8985E61ADE53DE74152F5C7DE74B1DEDCD37DC3E8FB30D7EBA8B9EFFC3606BF90B8D438279CB7709FC7C00D327F41817EEA71CD9E49FE9C8C9A81C70915D9F0F15958EC5AA4C3BBFAF46986B90F188BDB24B89DE3C6F29EC3E
310
6F66D84856EE96A35E657CA41B41EFD8DBFA16AD6E91439EA92B40B21C053249F51AE50EB0B24C770FFAF40DF12C8436366819C48E36547D4E7B72FE2BBF10828583057814A668BDF183F6B2E58DFB151103E56303E63D00F39C27C4661605DB644D19175D02E3F0241E8FC3458D17AAAADB117CE9EEA690D0DB01E634878C
310
04C2C9310B69FCAB831151E3AD293BEF6E46B0ABCECB50F5939B39C613D41E81FAE8D34CAE3C4566B761D37185FE864AC32FCB71AEF39DAA5BAB88609BB980CD2F07A8F941653B529567726E2B2A58D079DD57E1E5E31426CF184A04D7B03B985F276D47406AF276FE32E3328BA866EB1FD39BEF57863A317634AA5FE46740
310
9B3873F5069EF0D71AF00AD189D17BA1974ECDB2D623E9E14086386A6AAB5807825C37B015BFE892AFD154920EC437EB945D958E18622E1E0FE2FA06557CE4BB9BBD05A2D40E774DA2B65473791E314B7D6C886820B2FCFE4AA272B3B8B15E7344A145E8AF919B5454D89D36D413E87211186BF6F645E5EC94DCCE8E1C7990
310
22E4EC9BC86D7A0F2AFB1FC4B2CE48F84B3F49ECE65BAD24CADCC07EFF39AB06BE9E6B27A059938EA7208838455383DDBCFCD967DDE4650EF92A14FF933C975DB20BD7FEEBC4487576485963D757D16340D9599FEB362F775F38CA4185A86F74B629C81B133644A3B18FD056E997E0734F9BE26D11C0AAFC669E2AC9FC41D2
310
81F8B2E1C35AE27BCE05F3DA295488096688719D974DF1B5D182DB7792288697F8763CFB43562C1CDEE11C4AABD5C22B6E33F6F389CFC3477C5919DC0D533F8A7A1846B7ADB60ABDC26C43D0CFC8910B7C15EE22675BD02702ED39DB77A87A192CA7A543E6205B979B9F5A6B512A3CA799E198B2D5797C0AF8D1D872CA455D
310
4D431A7879D4DD76110B5FF7F4176B54477A9EB5E4A5D11214FDA585F0382751D8E2582BA5D2075053298FEB8F1537304E32CB22C2E2B693DC0A760B1DFCA751BDC445AFDCBB12820ED85F6D5298933C7EF1211E9E057684056CDA3FEF3BB6052355E162DF27C59E965A8DDB7F9437EB72CDDA3A090DE65A5B2F50326247B7
310
EC67B73ACC7047FC9B353D6EE990F772207C6EC52B39DC2F3C0754821DAB559F7C1809C7D0DD5B0499D0442E0A6E391B3D5DB46D11E731E6794EC77523FBDAA242ED67F9FA1FB684255671F63C9BCFE6E7E896D51001A6113EF2298BA494E0B0980D1FA5B9D60796554C02256B1E0345FB7C6186B6A19D2DCA270416262845
310
FA4F42DB5D9B0A0B6F07FCA2E56C242522E001E0CEB734AF310FC8BFB57E38E03AACE93B3326A2197891E68452B26A6307FDABFEE0223D3C03C3C73D2D5BC054C8311F12004CAE488E5C29287F8156A2CAA4AD0D7BE6B97264E4139F437CE73ADF52E5134C52B819777C18B323A5924E4F67AFD13B1CDC3A61793A79FAF5C0
310
CEB718E441071E797C6DCCB9EFCF7E4A1E9F3DF3C2F9C9E8294E9586868788C972857FB0556D7A26941A7EEB9B580AD78EC40B85DC906B4120A563CA3B87797ED612D3B035962BB75F6515A393F4CB057F564CDF54F2E5A024514E6A1F901DB80C7E70B1FC05E356A7E72FABF4775B3E3FB8F70A2A8E7B6A94542BB3041579
310
78CCC999E707A29CC795E67A59CC546A5D47B368954CA7B6E75EC9E1F6FC73CE3B4F71F8CB1A6B15923D61EAAEB14626AAA9D04A26EB9C66CD1BE86CA31A5D8703DE04CD1EBCE4F5CCB62F93909AD11E55799A781A956ED27D3E738F4538CB04ADABC7DAEF20BC35BA6A90BCC1DC61BA05F20D8832FFB9BC9B15E2DB838A0A
310
FBB7E0C82A562127E0446894F427794C3037186F622BF24DE1B00AA10A23BFA47B2A180D6DA5AD6F7326FEB8C100C2D7142EB2A0B2A9D1008A09BA343D70E054AB69E2A7EDB783CBD92537FAF4A44D1296AC2792729104B3276C276C951D0CF3CF3F1E6B017720A7B8505A5FF9589365979678C36F1BAF759EAF57C60F1FF5
310
FE9DCF5F8E764FF25A2D06CF25117A8FED51884C13B2B750DB0E4F5E3D64124FCF11F0AD8F1CC3B3DA4B38ED22BF1CB2585EE6BFEBBA63FBFD44F9537B9B37BDD6B358720F98A8125AED4349CCFEB0E135F19E208A04CA7E2B10711185D72E381F448036EF57C9F874E54A971CA37A639E986AC0226DC5AA00D5B14FEA9192
310
234B3DE617814FC221C92F33F1D392F297731B567FD98FD91D989379AF567A65B8ADF177591DB90FBEA99BF4ED11B16E50A0AB1DBF1156D034BBE04D69D08F939D8E92BF525A1DDAFF80ECBC95D8F45D3FDD289FD23F7D8B452F8EBB34EC082DEEE68E18EDDF072060FAD2AB1504DD4879BF67099FC58F6E9DEFBF645D1633
310
4A3E9A127C6F1AF6132CF287E433B43A0EE93812B4AA0B194E03EE3FF91EF9C6ED0074A2F6EB18A96A7C9890B1FCDA1F2095E944DB911ED54C60DF16FB74C8CE9BDC7C54C4F14078CF73C2FFF1F1BBCCD7CF64F71407EA1683DBC410D226627F66E509060D5C0AFD611DE681D509DB8DD12FB1265B03C6F5C55FF4C30BD941
310
87FF692B4F152982502F193098A789526A038AB529A52BC0DC4FB6285CBAC10A8B8DB75DCD9BDABBB221E27D1F8DA9F5EE5926A1C8AA9BA9BC09239C6A7F12914EA3B59EFF7AAEC3FFCCE56F1C5C2980AD072793527565E774F4631DB178CEEC691B1F367BEA0CF2907E1D6B854D527065979DDEF002D8B2ACEA7CE21AE297
310
737EDE1D45B31233B73FEA35BCFDD0B09721FDBAF6432681F2FD10C3E9EFB246FD6E854B344ACC9D8A0EEF876A7314B49B6A499FC650B099D650DBFEC7638ADFD245E2B7839DA5AC5F7D5623FC0ECEEC8653FC9B2BDD1AD4D00A566FBA7186DD3C9CD26512551637498CADB950FEC71ADB9A5524285DE328B8EC7EC75D2345
310
AEC6A27C42AF6D9B92155315C80DBFCABBB7DA0FAE425C4FB896B15C9BFAC4FE67DF5A23D30C93DA4D8F36FB15D100050DA6062E22AEC5F4DAC4F6FEEF97AE05DE63C6D38F9E068A20BC5E3B6BCD75320C5090924E7F93640A7735B1A43451C2D91EE62C6238B797349E59890AF3A520DF4A87095F3ABEC2E61F0593416CE4
310
6CDCBE0E00E2523FCCD04408588B5B6C9DB6459C786CE378770B54F51DA3A5E1DF2A3349BEAAC234A6CF8993B598B3B25B4B113E353A4D750FA7534749430F3EBF2512E7EA3FD43C6AB9A1F765A58463B306721A15D224FAFE8C6F5E3432D57EE697DA0DD5A9D4866A8BCCAAA9DFF1F06047851408FEC060471D0E3EB86BFA
310
F46E4B5E60311DC3E3CEA147C75CF971BE74689507154FF2D2E92F15CDB2B9182B11459FD8ACAC5A85F174BC94A7F4EE4C4F5CAFA7C02E37BF0BC77B7DCD0C047BC316F562A01A441AFA7931CC84A28CB9F4AA367EB515778F29BFE61195FA671F4352E5E46E3A64773F1F76EE5EB36D7BCE9BCEAD837A4D77F8DB8C92AEEF
310
6711920D7C7D0F76B0FD0EB7AB83724CD35BCA7D36DDDF5FBB7FF6F04A91F3E2BB3B8F1A43CD659639507FF6331C5F697BCC782AE57D757A27D97F1AB9E0AEDB43F92F1B2AACDF5FEC8ADBAF9F814E2027003BA2F9E144B1938A7A04050AE5D953B82C45619165C813A10E76DD6906B3C16438064D14CDA713AEC420034613
310
E1AC7241904A49FBF87409AFB1FCB9B72FE7933A87D8FBEDACECE4EDCF6A4FE9FB94D5DEB74FAB7CFEAE17EE965DF980DCCA2D04134994F9A2E94D2265DA4FE6AA7B7AC15FACAC2B5ABBCD7DFF542C5314FDAB2E1B9D8B65220B8E2B638BE008E8DCA22678C820C5053664D15E89F2D735B51A84955E81A443545E9FF787BE
310
0FA700A76D136C27DA179A7C6E8939E01BE756E19CB292798063D8B97F44E8A27BCF3A614FEB8BE974A718E86F7EC99B53CA35FA24F61F2B07266684623A3D4CF073E511F3A10A8FDAFAF0078C577F4DF9D339FE7862E5FA47CF4344209E5BF76D783B1B48E152AD281B15FCB934DCDA49CEC5706B1EE8B460F435324A5CAD
310
154725E21AB8044B75A557A79F6C807B9340AA3D92503E866F4274412926C8C504E4D5EF8C0E68DD0B028781A6B4054F11CF18941F101C57CCC796773ABC8DED9CD91FE5788806C05E548895354AEAC96546D55B0E94A59F148D061F42AA398D822CDECA4CDE79E13469BDCC44FDC990F366BA5978C15F97ED80CBFD73B0CD
310
9B8B83A4F6845BDFBFAF034019473FB9A63BD55D3A4A7284757071574029A4D016DCCBE95DD679EF3C4880BF169422F8C89B68A988D2B13793CAED4F74DE7486C72DC94DF46B8E93D8E02EFCB1FF9B3BA10C8AE7F653DF94F4AF466CDDCEF5776687F7C4C14B63E4EED1719DC2EC482D7DBCC7AE518CDE3D5FF86D39000EC3
310
673C0044E1D308BF05F74D1B5F033A7D1BE7F74BC55BBE3E4A20F920946CA0271EB17BD2B80E5660ACB8A29A79F5E4BBA49D4D945B6EEF4A7EFEAA65E5555BBB57A7E15D2F83C69F30BBB978D2B39F1F26FC097424D39BB33CA3D87ABF64E307938B685BAD44F71556A30B7E712CA4FE600613C3E554B69ADE949A7CFE214D
310
F1FFF05CB82151EC6FC31950239F94CF7AD39DC473F6EA356E5EC2C4EFA04383CEFE985A127484366FBEE3C0EC4FEA363E4F6632AE781392FD45D67B63FB8DF70E82734F431FD3443172A0E30A83D60982D55FA6A2CF86DBA8382502ACC6CDEF3B907982EED1160E14863FA242F9757347E1544275CCDCF71ECD5F8621CBEA
310
326B8BA884AD7F825781923E66971F04010D574C541D8427A438A37EEF8AF88240EED7362C953F5A81DE2D56109CDE2524EA0F5D2F87308C0C47BD97AD605878AB8589E17CA83930CB5E0DCCD75853D68B1AB136594926DE426C367428E9334AFAFF90ECE221BB5DC9E5BB53D2CDEF954EAA9CD814F0E5725F1965DD458E5F
310
8487683AD86B9D0076BE3EE91EB1CECC5331A67A3F79D8B27587C12EC2A6A70474749F27B4C0BBAFB94B34189E88DC18964BE4121B9137FD516C7755356E50D6714E31ACD222621EBBCD1CFF81D87479056A9DA0E0B8EA19D24CF937DA89F78E8650CCBDC110AAB6C4E46DCBFD0446BA9E2060E81F314AC2031E88135E5476
310
AC0160EF5C0DD2EEF1B8B5CB2D198BE9A554A9093B5F7D7E4B5407DDFCA1D9C152FD97F55BFFFDFE802954DFEC8995B983E28AC92F1971E28F531DC407A1280EB125F64A72E617EFB27DFBCEDCDA2D6F2BDADA36873EE46B9BE1782998C63DA7182BC383FB6FD15DA472B175D7E8B4FC88F38D6E07FEAA3FA3CBB8F6B449EC
310
F14D2175E5C5CCA3A42ABF24CA6C9395AF74535F4DDB38CB84F56614B0FD32D7E19CA5CF988DB4449C40E23DF2B16772594554579094450F56F253CD25EA7F77366FB1CFE79696C428BB64D5A41E986189427E5E4D7E2DAE3D5BB4972B3DC44EAABDDDD63A2264ECFA5C786EB0EE1FDC5BE34FA0F08376869FD1E61EA06CAE
310
15191135445EE8F0394161C3266A596AA035572BB0C8876180D8B9C77D307DF9DCDF7365ABDA6F3A2366436457A4DFC1F259666569A9E4A79C817BDD5610E5200FCE894A358EC72858D50EF67545DA81C6FACE3D457BAF70367E1E6BDD9A952FB4F56247F58F523B97E640246051A72F79BE42FFA0B3187F63097F91C48B86
310
8586F714B0EBD5A00A8412C1236E1298F60C72BE6C96B82B404CADAA304AE9F303176B14BA53FBC2D5E86377E35542019E24D97B96A49B2C0E5006E7795954DEAF5DA58958839043C6C70BD3B1B33B6DC5C31316D8A6923F142E26F6711A2258AF977DDF1F970ECC4F1F2B434B96D81BEB6E89BF3BBB3C7C8CC80505070723
310
D6D7D7D3C8CA27CA164A26024FED94B12A86031867241DA53D929636DA600F050BC40CE48B8BA03D69224720DEE2ED2127390BDF5E6EA64527BBD4C4C63FA76BB801FEEC0E61218EC98A8A86CD8313781617877E66692839B9468CF4DB8E50A73986E558E309C0D6F676F921BE02F1185454DC75B111572FF9D27D85EA14C0
310
5AD7271225B391C4275659CA4A43759D0BA44639BE4C30A84DB7F67A41399FB95CBF923B1B1672ABC807C1590557FB18D811983FA97F5E609516D62281D38B1281F68FC75528C35E4CD7DF0F7DBB5E5DD69C414EBEA2F4A5B241B996BA77AE6C772E367408C633EA3E438B68563EA8BE7667F3A4C4FDEEA52ABD78A2820F44
310
3B7914A15F180018D231E64519C56A12F6CA7C8DAE18F06F6B769DBF92329EF6A5D18FBCE600F36BD8E8198DE5CDAA96181F3A756EBA5501CEE58F497EA4F418A2B82565B9BCC611713C0B708CCA1F398B78C5F7D03B3437CC18F13061F55C7BEDADD5ACB1DB0E36D3CE47FF6EA1A563A57E9649EA5D14D1A50EAA45746338
310
1C073777EF1600607BAF6428A7DDC079D47A204EF1E1F1F0589FB054D45E02CE623B3823C317C601E589E22B1E88B448524B86A82828E32345EC18AE17214B42F8C41C6D428016D9BA31DDCB47572561E5A402E5BA4FCE55F78AF7268524AA04130F3A20BA5D1E9F9948EA48FC8F5314FDB35E21898198060034ACE5E3E2BB
310
CA34092518F275190AF65F45867FF0900AA4B81F25427414C372BF51DC29AA855C5428EE1EEDD6B849AD60F6E73475C2D2523F8A2772C840A478DED18A8C5C91B085F255DC4F54EA7AA8947354FD17ECF8FB3B4A0DE7B483CAF3A1165EE05BBA413E5C1FEF3DE1D6B8F2F3F3251C17D9FCAB48A9AAF63AC773A0E413BBC46A
310
9ADF84A566FC920E4D8C52C9769EE3301CADEEEDD92B312E02E2A7E35B7F1E7D203FE5A7D75578B06E99D0E46FFADB8FDA17ED8880390DA29094202D6F645F76F6F96409CDA05495A96E84B04A00D1A6C6C81D7F3DE9376E828CCF144EE50E364ACCE7237EA0BFB5607ED1AC3CFE73794E5B61739D14DF1743441B1AC98F00
310
ECEDE9E7301FA29755FBEFA68C91EF2B314CF510537EF1ABFC9A762496280B546F5EDAAF8A5B387D469FC9A878A92828C88608453ACEC6094DCA54111E7AD5B2663DFE2DD151B7F123B9F4FEF8EE36AB125FD7AD52A59B1B765B3E3F73E3F73DEA93875004D2AFFE3CDE9493B87A9904DD052028949041A91DC0E1BA47BA71
310
4343FD5B25E0A6A09503AFC17C790058A836A324FE31D7893512E28230332F153181C1E018E1124EBE1BA262AA428A518237D1EA7275E48C5C561BD19ED6912EDD8367DA0F31E40EEAE9683DA9257525AEA7B632B97119E17145A90231768A4F3B9120FF32E8319B015E3CBE26F1A754177D8185345817C096B0CE443A955D
310
13AC15E1FB5DEEA0239EC32A3C92241A237B0B02FFCB4F93CF2B02570C8D192E2F2A68CEEB42F12E6F8CEEFF46C251E22B4341C56FB08CCE550E7A9D6F4D6564B9EA52A83D5BF2C6E03FA19D2775E15A8A7ACF30A13C259EE7F5EF2AC3BA354F1500E1A07FC63FB4686E2F12EC69719F9ECF5FE3F35598DF2CE944008CE78F
310
0911BA5BE5D0A34E0098FF038669C26030BA9B300303039852A8F6F496341737CA7E0D2E3AAA36DE0A70AA7D9CA0D54D9AD84B18A44C9E625475E1C97B93BEBB38DCE7D227E67A2D00F531436136355F243D1FC0D712C5765754FA22FCFFAE97919161F46D6E61ACB37D83777B385889770B50765B127768443A5C4D3A4E35
310
A3151111F146B7CA116F918A049F1C272F2CD7976C69A0068773451659A97E0F4A08FE604C3FF6CE7385DB19F4D3ABC8A0D80DA8A42096AC377DB49382B36E270B6FA7570188B4B7D1DDDDA82ACA487CCA5D38BD3BD039ADBAFA4ACFF27809239B722081E2EB9F145320553D183F28471C388BC8814E5045676767AB58A8E7
310
2D1CED2CA731379515D2E533E4CF0B39DFC625F97AC4836831A4DE330E87A8126FA17EBE583D614E71E22A8DBF2825599743E0640037303E8E1B1E8EA4E1ABFA4F62907B5E4E0E5DCFDAB417C36C6848A2B8D15F1E505434C0707E16B1CFC2A1C36A42BBF55734F8F4301DDC2A5110CEE8C0747F69519265012A2174BF4E95
310
5ECD4FDE095A3ABC70536B7AD0B9D7892F81287D667C108703C9B66A221E9A0929D030008F77FF6F5D2108EF5706FC87A3069B976F7C9FC3239D13D283CDEA83597461079FEEE049B0F392889898B7D87D31F8D60ED7B56B91823A8E4EDDB36C6172ECEE42BD42B12CD67994FA0F0DFAE9389356F4CD4425A4B8AA55CBF7EC
310
D585C6A2C2316791E43D5C06841ADBB226A87FD61515FFBB0167B74E56BD7F3E90A57A97FEDCBDF483A0D6699A8C0849CAEB4947FAA90D8E332D9DEBD9F4738C37DA0CAF9CF3DAA68BCB67C420459C7A64498D6E848E5CADE92BB6901F607AA331104A67F7CD650EE169B1DAE94D2C31C2F993632259B6957E246EFE4C5481
310
107B07118607700040E5812A2A2A38DA0076875258C753F60E0F2662C748EDD5F3F3686B8FC3BD6FE631ECCAA1E8B1C1E565AD117E54893E79F4672E32F9E46B2A183DFDCF3EECB4D4D077DBEA0DA254D256045109670050129E9B9B1A9E4A11344D61497A992778095151510C4BB7EF2009B63AA4360635312E4CF668B7E0
310
D3D85A8688E2BD83B569439892ADB63461930D428E0DE42E4AC57CE48DA5CC1449530D8BD3D6A0F08DF20C8E8F570F2CFFFCEA286E30969B4654D498A58D9DA782E19FE3F002181838925592C4A1EF0B332D88B61A92C644547BED490D3A42CFFAB70E36D961F694F6307F72FF15A1C79D5B1B5CEFD353D9E2B52566DEC8F8
310
F09CB3E8359C0F68EBBB7898243E34E12A015B2685AB303C04D3A9E00671FF3DFF0A184E4A2ABEB2B666AF5B3A209C73D8EF29DCDB069C9F391EEE9DD0F74C7BCDE16F8F02E3B8816122BBEB50665775B600549D8BB33A54A6BF940C028118BC6878C79958D6784F9DEAA6E26748386FFAF8D0D0101E2847B6563F5D8DC1D7
310
8F787BE00E2C941AE12148D4A81599FE8F68D4DA5CDED75530ADE138240300EE13B0FC13A1687FED6774662C05A2B7DFB186732F0D7A93545D8B0A6390AE5054D9CB582DA846D7A061B3358B45E2B52DDE63E114397EDB7E09233A579155D795BE76102CF277F4DF8B188C4F2879BEAE3C08347124BF9ED23B128259FE107D
310
31E34A652F090B30B39E0D9AF917B76A2806135621A8A60681F16AF216514BBD02711585B5B1AE823F4B2D0369EA5B6BCB863072727FFC871CA6C9AB79A814D989057E9470A3D238BC87CBB4A0EA49AFE2B86F22E499793CAA9047080450166BDC357524561E258C77CB697F1ABB32562CF87C3B7AA12F911EF19FB3E5C022
310
22E887D08202A60A17151F5E053A86B437771088B4FEE14D652C43E8D939995D34545E12E2FF93D4E366EAD25F10CB7DED141563C3D0C447AF06078A91135FD4B9611583CB4BF3BD167F2399CEAB0E0100F8FFC305F00F1711717173138B4B48C83022295DE657EFEDD97F238ECA80F528AFB4F8D67AD4E2594B9A3AA86D74
310
87EFC313BA95745C186F0CDD84CC12DC9CB0424B42203D351FD9C0A3AF10CC7F388E0329279087386421F194F4A29464C1DEF7EF8BE515E4A199DCD5B909342598D8FE6A231F71336248D5CEC5454455C7BE383B3BC7B260FED27F703FDC39A170F3827239102F59D4DEE7FEF82EAA1A5E4BA94DCC4CC44E7E2EDE20F24244
310
E4454369D2E87C3F823F193FD4FD27E1C23984B01898D15ABC20711A8A558054951A6AE280096BA36CBA439603B7B0B4C45F248C14B2383B4B5CD8ECECE4FF859AD4A6CA2326D020EF090F4041D28DB66E5256B56232CC52829DE8060BAE6BBF37D4B7469B822454FE93210A3E8D15E69FFCF01123222611C51C4FD0A041A0
310
CFA2471CF6BE38D2B20FA4C3525B5B8B586759475CF80ADFE67A284AC24651E52B8E683D24C2622642F27E7C3C22783BCF63648BC398BD6CD0D9C97E7E7E3EACB6126DB7A6C1FD9F1031302EE67ED96F22B77C7CA0239BB324207559B105E4693EB26EC46182A92C9C0DBD24F29B31C5C5AC1F84300E0E17CEEAC15F5736FA
310
4A98971E2F1423BFCD68D4BBD5F86E74B40A369F39507C88FCDB35D2DD8DEBEA4AF999E23CF2816D204200DF6E611781B9884C1AC8888B4DE397320472959434323A5A36B22A8E1F721A270DF3BD65E4A31C11FF048AFB0D8B7B6881423793963A23CFCE935FC189ED36FAE35C46DA3574C979E4394BE52084F3081837BE03
310
3396D2EBD80F1F691B273F660D2B32FA27A33B1DE4ADA5F0FA4651511102DFA410DDA86E065272CA314D5249DF91B06BB92807B28EFD54F08F7B525252782CD276DD02E6B0319B13DF87B1F6361AD6B28FC0D711CF445429B9E5A433CD493051C49A9E03DDB1B147D880253514A5DED88009018620EE229101C041950E2D8A
310
A8E1F5F5438E0C0C0C60EEDEE9E3E0C051948C69F84BB7B2A48A1F3C8EB9E6864687F4F4F6F6E2FA87608ADAF9C5E117B7C1A737E710769DA1D15ECE6A84502AA855398712D5FB51BE92E4EF824969CE18278798AC303C2C7980DD2500ADF8FB1E6D6C2FAAFF9987178923334A244758BAA01A9A1B70FA5097D01E1CC2A58D
310
AD0EC94CE6430AA9B0C10D75E3C6BAC670EFBADEE1607739CE0FC18A2587E3EC3058562014C64219C69BC269082D5C2F4A659278D585755912176D78A1B641719C2A394CED495A1AC5D583FD2F5EDD93308EA7EAE8A6DD396598BDBD3D4CFED62D18A5BDFDE0DD5C80D1A89BA62697B131AE7CE9A6594138582F1B37D68F17
310
49AC7CB67A70695D48A4A056AC1FBD4E82358CEAE38F54B95A9016F9000F9879C0D9D131768635CA798895F27D6F1614F11F2838A83611AA51C9A3DDB539D42979C29F10465655C17BEC3E2760B80DCBF609198C7B171A531905F3EC218D696025975E986C6B4C666666787271F202805577DD5A3EF0CAFAF91B62DC4B2DB4
310
217A7606282F31D8DDBC290593BAA93EA6353AFA9939B877978481E15CFC9F2755CDC00C538F63A4BA3E80AE009B73CA0185687D339A507D165B74290D6EE46D5C58148F020C3668ABE9EF2F7549170DC80DB41FFC1D678FF19AEB10C7133832B104B80F691B3138F97A92D26E551F1F110400D45AC71A9B9AC41A1A1B1DAE
310
ED0B0810638EFFB511D46B121C6FEA0F38CD00E03CFFEB9713FE1F9C263E4DDEC160D0497FA9A132BA608584057FB15380825DE6C7FC3C667EE947D488A09898D8E939C4953BF4EC9836344D2CC6B2971B2A21A572B06096F4982D2CC7232D46E8EA69DC83722E267754D777F97F96D5DA74E1E75178084D0E70F12AD33E5F
310
71EF2AFA599B2BEBF60A5BE475F444F240CBFE8143C334E7ED9150FEEFEF7EB020C4DBED388DD1D6A167A76F3CBF119B578AE8CFA7736ACAFA4440A1C47185638A0D2F3EB5BDDEFDA958FB13CE4AA4923D5BF840392D45544329525749734866684BF7F8D9D54D892E19BCA9F829A0F8BFCBEEA6CFDFC61D74EA1A645ED7A1
310
FF241739F15694BD835B66FEC5677E40FE69BD3F91AE402F036537218A401CB0828604AD189E575015C6F3F6BBC8AC79CF6C70653847254B31551EFCBEB5978B9DB85D58D0FA41A9DFE9C624834AA04949D24B5AE6D299E072D152D12097920F14AA92C31C3B97E28B6C2E6E9C23D63043ECBBC0A60FDF5BD0C33C127EA8A3
310
308B8B6AFFEB28B4455BF6E7AF4FC6222728357EB8E46E85053E6A8843AB23295BF838ABDA94658FEF3F832F147046B4ACD6F7D48E8FCC9618582961C898D1C7A253C91BFECBDA6BA18A1FCF70755DCCEE2222F41B76D23CA98D0CB3D95F0CF66D57FFF65E2A90F5DF40FC3187621E981BD0BC1D992787212688976B94A8F0
310
C6EF646624B570B78E068826F87CE27041A95C9A4871FF65CC17FCB1639629AD6A9517000D63AC231F3D741CB8430777E7ECF80CE7A3F73C0F162F7E56AA71F4DA80A33CD6ACEE78E2C11FAC03DAFCE929B106F8F6B3ED2DC71FF994BD9CEF4E9A94896EF1B6E2B7B4978168BCF0847A3D2A4F1B0500B926E634B174548E9F
310
BAD27153FB5FC36799B1E6C7C38A94E1F9E996796D7B485E635D5287A2AE76FBD11A341DB3F8F810385BB7296391973DC6C37C452A9305AEBBE0CDB6C566DB59FE60C8E94B1FD090354BF51439FFD1B48D725228FFA88C84F686F547107A7A235665A4593B7C34D748C1AC8D56DD5DA861EEFBADDECBBD65117E65851F9035
310
1AEB65F0EFCFF4BCFEF24CB7A5879699FAC437A7AF9099186CF006BB923A59E37D7A36A29FD8D2CBB914A5E9D0A8FD212FBF796AE9A67958FF1D5D8B85F78F96219D4714EB919929241B6C018AAE0C02069F8D919961EC5DDFBFB7573E3AC8E08BFB7C8534BE6DE045B3CD63DBD71F7638BA2309CAE398EA3A7D8F98BBBC7A
310
EB367EFA5CFA27A9F8F2F52FE878058E6209C026453F8E7E8A237DFC389E9590F6059B397CFD65183BBF936E86896612A5B5FEE49DAC8455D026218AFEBEC12B3523A45B57B82C9C97E02ACFA1184DB18E48CF615DBF39C3CC6F0B4AE6BBEEA2E39D944E290302FA3DE33FA7E40296E2EF7BF1CD855BBECFAD0FD622BEE974
310
6FC4FDFDE545AE6E3BC234CADF83A0FB76DFB145BF3828AE3436368AC24989454F8FF70A177672C711CAA1A76107218CF948CA01F873520E7A2B118EBB161ABAD432932029628B6761590C98AB590C8C8C79798CE9F715BA696E839E9131A4BB68BE923F1747FBFF165331FFDD4D05997ACD168F12CA75348DAC04C7F509FE
310
83898A8B421181AF492861CE81E4A2DD0A30850CFA95E05F097FF70F9E777310D584A75BA7018922E271DAB1D785671157685B7D383D3E074DDB4F1E44EF04B07BAAC75A062077C54B9752C738C9D804D402E02851F3F89605AF189738C18C021D2139EAF72513824E10DDD3047BACC8521ED7E98B257D1166903B1B08FA6F
310
918FD7E162913FEC7D0EF4787E29C35FBA8C6E2C9C20E9AB30AE42CA2A01A090E7D010C1B5BF9CEE2A304BF3A987FB40D836979B79E18D70F257DA61E808472DD85B82761825779D6B90CAEB0F23360C6F80A7D7D77545E95B3DFF0CF96A827F9B5BCECD2C9698718417EF80FEEDEE938AFF55859D0D540B7FE09435583A6F
310
04874A0C7E8CF234DF4879722000167F5872CEC6BF3EF7E5A8CC8121E6A359227C8A29C95212F9F735BC72A887D56B8F309FC525BFB4FD767AAEC4AEFF249CFBBD2DE1AB9969A6155C7D8DABC307E47324C1F916C7BCFF40ABA5644E9FFB9238D19ADADA49D9610F01ABBA57E4DFCBDCCBB2B93C8953206C91DE01B0E2651A
310
6D6C31721915B31F7B7CBCE55466F6D70402788FA91D73BE4ADCBA99A35F17D6B83383704917D6833F0FA3CD45C926ADB8BC17999A4A0AFBCE2541F7B8CF4C2F5FBA611B3E626D64407CB32C122DFF4EF8674D6EDBB86C8F7C6A16D50FA685E2CCA34F8F7D1D8265BB0042E9D7F1F666F7BE5FAA5184DF58E12122A42EF02F
310
461B3F369AC746F96528AD208512AB56844CF75B97F352DF7995024FB02855385854F3798670D01CAC771AC3E1889EC25F61A20C1F8CAB46898817F9C47E2CDA1F286BF2F358298709FE567C91133E2638C8B53975E753EA8BFD3578B5F7186B7BF084EBA3F77BAC3132A5779902EC22AF2D2E79F42D324E083386DAEE9810
310
D1B44A5DAA54513C7A71E52A4AB9257D975B621308FE4D2141CC3DCFE946C154A3C1DFCCA7629EC69ACFA831634ADDA93C0388D2A9A2DDAFCF957C6995BCE7FBB6DC4EBAE79E63EB08E9A25F52F67076F7093CA545CA3053B5BF576DEAD4E0017143C5F759F32B2D6F145B52B67B48909B7C7FCA6586EE385A2189C16932CB
310
6DDFD9152AE317C430492A578ED27B72D85D40C7C93C097939E1B50F4D67F05334FE9DC362C30B7FF561B95259138ECFD9274C8D695C31B14D4EAA9F3D7FA8DDF652F8C5DEFA23284C799B7D94416DEE81E05A866302DC70192A5368EA65E1CED8BF107A1E2D3119A71E85DC1A7B0C1E93274CE04DD0F2ABC8AC7C987FDB00
310
2B6F81757B43502EF7A0D92E416494FAEEA4C9C090CD9557AA4D532F4996A272B94355C5A0E4974EEA9627476F30809B94D8D8D860062E02204643BEC7D0438AF800FC7E2B26955D595421E83C69E1A07E0E3122285835F014AD538188CF9737CE76D464A353FA55A001AB2526B84E985083693BC76FE211CA1D000679C889
310
E3C009832C87E1AC2EDD05C302557422DF0800E316FCAC86978A371F025A6C7DAA9F333E7BD160403A1A06EA75AA9888FF01504B0304140006080800C8508F5051464CB48900000043010000360000006662782F31303932413644412D304133352D343136302D393334382D3044363846444232323035412F646972656374
310
6F72792E786D6C9D8F310EC2300C45AF127987122606C71DD918B841D4B851A43646695A717C52A85029031293A5A76FBF6FACEF7DA7264E43906840EF0FA03836E242F406C6DCEE4EA06AC22492573150D1F66C60C640E8938CB705396EEDD86DE9B5042FE27813D640EA63BB001C722AF6E55CB61E4863F58284D5D3F53D
310
D715CE1C3985E63FD7F1B7EBDD617E9F1E504B0304140006080800C8508F50FBB33B2F3E070000541C0000340000006662782F31303932413644412D304133352D343136302D393334382D3044363846444232323035412F6F626A656374732E786D6CDD59DB6EDB3810FD1542FBB2FB60DD7C895DC82E1CBB2E8C226D51A3
310
8B7D13689952B8D10D949438FBF53BA4485952645BC9B640B10990380C359C393373663872DE1FA3103D1296D1249E6B966E6A88C45E72A07130D78ADC1F4C35F47E811C9624796D9F86621C91B9C697B58513B0A448E5D281F8B808DBAB9BDBBF50E6919868C80B7196CDB5CCBB2711D671912707923DE8079C633DF08FBA
310
A5971B9B620386D3FBD651296624CE4155588F418AD4C06AFE0926190BC7E01B1ADBEC7EDB8617B619C2F0A6A234CE721C7B2FB46AC9B1FB6935B446EB0FF67836188F46C3C168625B83DBCDED7A60DD0CCDD564B59A2D3FCC34B470F64912560E48497C002F3E6B0BCB31F87F2AF3250A5D7A7B491C134FA2D9B5E140A45C
310
4AB236260D602D615ACD21A5ADB585614FE3CF6CEB054A43A506DACA38F5BB1EBDC9FE6F0021EB13A52C233CCAB39C81AF25F6653E988E51AE36FC423314E19C308A4314D23DC30C1C045B4B0735C4F06CE1A210C74C7851C9ABEB0A817D3D97BAB4F48B30E4F9AB2D44A6B9908F24CF8466F41FC24EDAD74F039DC0DA82C6
310
F9541A9B3FA72062E61862B1FCDFD096FF2C81447E8803881630936F1ADA2DBC569C0BB66B6DF169B33FEE383F741F9EB224252CE791279259E69DF2602DB420F87A8052E2DAF4DD09956F00FD6740BED20539E039468FA3E348D9CE709CF9098BC03BC84403137E98887F7CF1C931AA87170835B8F21CA690B63F08D38619
310
8DB36B902E9C4708FA840DA5713B0F8710D37734E6790E8182C2049680EFFDFD515B6C814C61119EC221580FDF8EC13F22F855CA01BE6979A88B7E7B384A254C3BCF4EBEFA0831C3A857B9AA61E3397CC73F04DFE57AF76957301F7BE44E26F69AF834A63914D36E851AA03752FEFBF6B3C8C817F6347679704E9070E2E8F0
310
CB4EFA0509C7802ABC0E97AE112B7714D23D0C714C922293EB5D44E52561C2DCFDB35BE670E7597FAA20280F83FCE611D0496650DD3D46530E8AB690E6554CA89F70E23C280330289DEAEEB1F7C0E1753D60ACB7E801518B595B6811A52E8E9222E6F4FD32BCDBA6E943537C59D6CC3667F674361ECB8007DDC5012A7F1439
310
54EAF393229C9E3966D5F097E40D0564994923E0CB2E1B3CE89A8ADC4D52ECD1BC3B1A5A66F454F9407DBFC880D63B816969AC0FAD71898DFA69DBC87CC56AA5D4656BA5522E8D70405C1FF39AD8A95F03D04AB872522792419864198D49267A9A175CD742D1D4813ACA4857523BC296666E4472FC96881545B215B08CF8A1
310
0BDD57CEFBDFEBF1AA1494F5F69C44DEEB25B12BEC7F76331CA561D9D75DC3C0B25B2774E2CA95E6473C427CBA3877CD03116DFA35E91593287C7B499FBD59FC197818FEE9F0A8232834EB5055AF7BD6D2C7D68C7F4D818626636B38B9A95C710D2D7558CEFB96B0804ECB7B769F080DEEFB91A072F9C5733212FA2E0DC322
310
72CB1A929308DA369C17AC57C64E804DDA07496668A544ED249F86D054F7A659D1AFA88E050E130DCB399AAD1D0346D118EE75BD0C79614567100B5F883B2CBFAA5DF7FFEBA5FE67C6ACDF6D1EC8F353C20E9D9A365B0FD5B5A9268313A6AC89957B85E485534FBF485C76AEE330524224C395370B19218C3C523ECC10B7A6
310
CE3B47F684730FA874277E0F6E21230EE470EA431AE2E468445BC0A14A9AEA6DEBB723A03B5E401ACDDA96536A04130ACC99F68E7F08BF617035748B99213B21A35CDFF2D2A6C330E6A4C705595F3EEE5A5260A5F7D35F3946E4A92541AEAE78F37741D4F7EDA9C76D4990167DDF5E783CBF2FA27D8C29AF8D3C2CF0217DF7
310
5EDC3FE7065C2E0C0BA86D39592F07E672381E8CAC8939980D47D381B99E4C37EB5BDB36C74B83912C29984732C3364C57755B691CA8C028A1EB730B8149C4F5EBA28AE7B683FFC7B79030D9E373B1F8AB5E42AA868FB764AD5CEC7B09E924EAFDEB6E0CD60BA2EE2E62AFEAB5CBF9820AF0CB650BC848D5FBFECD8512AD2A
310
7CB7CEB58AF8CAC27BF67EF3D36B4C83D03BEB43634717E537B918E6551D554ADD8805AF6D56B3E1CD87E98813D772309A9930B7BDB5D783C9660C33DCF178BDD9DC5488CB5AD8B7AEFC121CAA94AD8DDE60829C252185413E39A0802470078249450F7E6511C9C4DD061A0059C6D55B841E4F3F9673D81CEF43F5B4778F61
310
981DCA8A5C783048857BC75C93EBE837189DF2E9A51868E90F507864B46BA86074AE4108E414EA8BBE87119818380AE9AD1127B80DC701BF35954F557F9F1EE3E840AC9CECAAF6F4C1455AD6884E1827A4E2DD02B09D6A48DE6EBA5207E11C3EEE8BBC32E6B470B24682A05E2294C6C1A4F041C27B04E2B96C97A58B3D0D48
310
7A4DF32FC641297590631688917C0DEFE5FAABC1A7E9DB2F280D8B80BBF352BD6F481AF03E232CCAC195038121CD4C31BF89AFDE195F5902AFA522B4A11004E8F7E374F287B14AA22889CB2563295F6EA1DD3DBCAA3A186A4C088D8B69DD18A2EF91AF0260D695111D1FB2075800D732CAE7A925C48D00A8E8A91600CA23DC
310
17F05863FF768D6411A8B5B0F5D695C323DE03204824FEFE87A74D7D436D6809B9005A95B3DDEA835A700C0683F3C5BF504B0304140006080800C8508F506885945DE1000000550100003C0000006662782F31303932413644412D304133352D343136302D393334382D3044363846444232323035412F7265736F75726365
310
732F322F636E782E786D6C4D90DD6A032110855F45845EAEBA4B1A4A70CD4BE4AA37C1EAC44A5C67F1A7B46F1F4D2DF46A86733E8633479EBFB740BE20658F71A53313944034687D742BADE536BD5172563221967F1825516FB0D22E53255DC2BA0FC9C24DD7D0D5E0E37D88E2EA2042F2E6BA474789093AE79566F3099B66
310
BA16B490EFCCEAA2D9CC1264ACC9403B51FC06E38449A00B58AA16B188491CA6F9F5328B93389EE6E3BBE49D54F203310CDEC70209F79745186C6B6C8984E41D50B2263FA8FE4633FEE2B1164FF2662B994B6A1D0CACFCEC0DF39B76C09FC8AFAB24EF4FB6F16CA0CD5E887A00504B0304140006080800C8508F50FF15A4A4
310
5D000000800000003A0000006662782F31303932413644412D304133352D343136302D393334382D3044363846444232323035412F7265736F75726365732F636E782E786D6C4D8B3B0E80201005AF42B6F75B59F0390B113044D83508C6E30BC6C26AF226F3B8BA6360974DA7271430F523308B2B198F9B80925DB7005392
310
27A2FCCB80A18E5640D320F996A81C9F32D6E9129A0D1EF74FCE750E6D57BC7165FBCA07504B0304140006080800C8508F50FE8C69E44201000056050000300000006662782F31303932413644412D304133352D343136302D393334382D3044363846444232323035412F636E782E786D6CCD94C14A033110865F650978DC
310
24BB6891924DC1834FE041BC65B3D335369B2CC9ACD8B737A9DB5691A287427B0B932FF0FF337F46AC3E065BBC4388C6BB86549493029CF69D717D43265C97F7A4584911BCC76F18299C1AA021B94CA4E8839FC6B9D4C15A4D3657AD719BB9A81083692784480A6D558C0D89FA150645D584BE83B8A19D42452B1A20FA2968
310
48EFD10C30BFD70114424764CD6B5EF2DBB2BA7BAAF8922F96D5E245B04C4AD17A6F67DE3884E0C79B9A6B9F8E2EC9E18265408A299899CA1E883C6AA3AD7182A57B2962D2EBFA99C3ED98B971B4462B4C8D625E236099205083605FB0142C3BFEE1FBF1E1F9A8219D3A1340A30FDB8BB5A13AD58683349A12F1BF2EECC0BF
310
CCFBF62D59BEDCDC4F1A9E859DCDEE3EB93145F77712529E94EBED357E8083B4F3E73F2D1634FA1A4DEF959DC933DBADC034F8BC11E527504B0304140006080800C8508F507A2D7BE67E000000A30000000B0000006662782F636E782E786D6C4D8CD10A832018465F45FE7B37B512032D1CB2F7886521330D97638F3F1D5D
310
ECEA83C3778E1C3F9B476F9B5E2E0605F44200D9F088B30BAB827C2C58001A0799623CFE6E80C2B4590515C320D714F37EA2D92E53F6957A179E27A4A4679A1B8D896E3ADC524E70DFB40213C3C5DDDC18239D2EC6B52A657EBDB2353F7C01504B0304140006080800C8508F50A6D797065F0000008200000007000000636E
310
782E786D6C4DCB3B0E80201045D1AD90E9FD7516806B51190811670C8A61F982B1B0BAC9C97B72CA7B1037C6D3332918DA1E04D2CAC69353902EDB8C20262D23F3F59B81A079470595414B17391D1F19B4730A5583A7ED43BBE4025D9592775E5ADFFA01504B0304140006080800C8508F50ECFD112DA80000002601000013
310
0000005B436F6E74656E745F54797065735D2E786D6C7D4F4B0EC22010BD0A61DF525D18634ABB506FE00510A79458060253536F2FD89D5197F3FED3F68B9BD80362B21E25DFD40D6780DADF2C1AC9671AAA3D677DD75E9E0112CB5A4C928F44E12044D22338956A1F003333F8E814E5331A1194BE2B0362DB343BA13D1220
310
55543278D79E6050F344ECBC6478EDCD76CE8EABAE5449AE4298AC56946789C28AAFBEABC53F3EAF09A84A1441B91F0101CD4780756578C173A578FFDDBD00504B0304140006080800C8508F503DEE336E64000000790000001B0000006175746F6465736B2D64657369676E2D7061636B6167652E786D6C35CBC10E83200C
310
00D05F21DCA56CA76D41FC96062B120735B69A7DBE268BB7777961F8D5AF396893C2ADB70FE7ADA196782C2DF776D7A97B5933C430F15651E5469C55D70F80A4992A3ADC954792C525AE70A1E4D6AD9816CC044FEFDF01FE3FDE907802504B0304140006080800C8508F502CCCAF75F40000008E0100003D0000006662782F
310
31303932413644412D304133352D343136302D393334382D3044363846444232323035412F7265736F75726365732F322F636F72652E786D6C8550CB6E833010FC15B477830D3429917144037C414FBD59C62156828DFCA8FAF9B50395DA534FBB9A9D99DD1D7AFE5A1ED9A7B44E19DD02C93164520B33293DB710FC15BD42
310
7666D41AE37FD120D37C912D2418189DAD09EB0E09A3BDD409D566923BC89D931E32F1884D0B4EDCE4C2731E7C64B87BBE7271E7B3CC49BEF1180D414DBB544DD14D5D95B4C0BAE1D8357DD5A34B73E9503DF41875B81C515595A426CD717C1B465A2431A35E2D3FDB8595DCCB0958894B8C708DC8CB3BC1277C3891C3072D
310
129351E76DFC795F9ABE8B745A6CE81FB7B04EFFBB05A57D55EE6E9BC20123F1B8E780D122A513CB33BA585392EC1B504B0304140006080800C8508F504EEE74EFFA000000960100003B0000006662782F31303932413644412D304133352D343136302D393334382D3044363846444232323035412F7265736F7572636573
310
2F636F72652E786D6C8550CB6E833010FC15B477830D695222E38886E40B7AEACD321B6225D8911F553FBF76A0527BEA6957B333B3BBC30F5FF3BDF844E7B5351DB092428146D9519BA983182EE4158A83E0CEDAF08B06859133769061107C72363E56485913D064D4D81157507A8F010A754F4D075E5D7196A58C2131FCAD
310
7C4875931396AC5C7882C7A8C755AAC7E4A62F1A1D88FEB4EBDBA119C8B13DF664731A28E9697D264D53B30D6B77E7B7D39957592C78D0F3CF76E550061C41D4B4A6846E087B7967744FB77BB6FDE055660AEE834B3FAF4BF377201C7A1B9D42CFAB65FAC7353EC6FF5DA336A1A957D745E141B074E473207895534AE51961
310
AA3951F10D504B0304140006080800C8508F50045C4021F0000000B1010000310000006662782F31303932413644412D304133352D343136302D393334382D3044363846444232323035412F636F72652E786D6C8D504B6EC32014BC8AC51E0CF82327C244AEAC9EA0ABEE10100725068B4FD5E31762576A77593D346F8699
310
37ECF2BD3EAA2FED83717604046150692B9D327619418A573880EAC299772EFEA181CA8A558FA0C080B3C5BBB41D9074366A5B50EB943E4011828EA0928FFC18419037BD0A2452CC8C70479B9077B16844D0CEE32C9AF5572ABD16512BC029A618E21692EE83E033EECFA4FF64756172969251879551D9DD5C8DF680137CA2
310
533F4F104F4D075BD263786ADA01E2B91FDEE7374A7137B1BA88390BD1E79B8F4FCA75AFCA77E1BFCC69532F64363636F430DC15217BE63CCF05677529308F67BB7996B2F90F504B0304140006080800C8508F508D02EDC554010000DD0200000C0000006662782F636F72652E786D6C8D52DB8E832014FC15C33B0AEAB6DB
310
0669DC5EBE609FF68D227549150C82E9E72F7889DB87BDC404C99C7366CE4C208747DB448330BDD4AA00384620128AEB4AAABA00CEDEE02B880E9418ADEDB7361029D68A02041850521BEDBA19E25A59A102AA74256690F5BDB020E28DBF14A0E79FA2653173D677F4F7B863FCCE6A11E378EAA3C43959CDA3B2F26CF22685
310
01B43C6FCBDD293BC1E3EE58C2FC7C42B044E90566598A73BCDB5EDECE179284614AAC6C17756E04B3A202344529822887F8E51DA33DDAECF1E68324A19392DE1AEF79160DEE00BD5D1F2499F0273ED7557FF339A96C96CE7CD3440F28F6EB8D054A92908FFF8DE13D67E8857D7E965D9BC5C2DD4383E0569BDC572AEDD6D2
310
C01A273C358AC68F2453D5338F043FF1A4BFF0FCCEE18362AAF6AB31EBAF576783FAF34E9D3070B08F4869D3B2665D6E5A713D57A1274BCB38D78D36FF995EAC2E6126E161D22F504B0304140006080800C8508F50A510170E08010000B201000008000000636F72652E786D6C8D50C16E842014FC15F2EE28A8DDAD1B6463
310
57FD829E7AA3C25AB20A4670D3FE7D61B5497BEBE99199796F8661E7CF694477B5386D4D0534218094E9ADD466A860F557FC0CE8CCD962ADFF250364C4A42A883070362C769D77A8B7C62B135163A5DA41E19CF280FA313C2A70FD879A4422561F14EE96CCA2BF89412534D9749C793DFDACF68B125E49E019C9082605A64F
310
AF949CC8E1440F6F2C8D4ACED655CBDD4ACBE0AEAF5A2DC0EBF658974DDEE04B79A971D13604D724EB709E67B4A0E5B17B693B96C665CE9C5FC29FF72321A7474EDCA32F4B378AB3776BC75D10424964CDF8059CB034127F42AFB3FC47686D7C9EED07B70D079C86400F2218C706C378D41B666C9B7F03504B010214001400
310
06080800C8508F500000000000000000000000003700000000000000000000000000000000006662782F31303932413644412D304133352D343136302D393334382D3044363846444232323035412F617474726962757465732E62696E504B01021400140006080800C8508F50000000000000000000000000350000000000
310
0000000000000000550000006662782F31303932413644412D304133352D343136302D393334382D3044363846444232323035412F76657274696365732E62696E504B01021400140006080800C8508F50F270F13306000000040000003600000000000000000000000000A80000006662782F31303932413644412D304133
310
352D343136302D393334382D3044363846444232323035412F747269616E676C65732E62696E504B01021400140006080800C8508F5088E57597CD3F0000904100004200000000000000000000000000020100006662782F31303932413644412D304133352D343136302D393334382D3044363846444232323035412F7265
310
736F75726365732F322F305F67656E657269632E706E67504B01021400140006080800C8508F5051464CB4890000004301000036000000000000000000000000002F4100006662782F31303932413644412D304133352D343136302D393334382D3044363846444232323035412F6469726563746F72792E786D6C504B0102
310
1400140006080800C8508F50FBB33B2F3E070000541C000034000000000000000000000000000C4200006662782F31303932413644412D304133352D343136302D393334382D3044363846444232323035412F6F626A656374732E786D6C504B01021400140006080800C8508F506885945DE1000000550100003C00000000
310
0000000000000000009C4900006662782F31303932413644412D304133352D343136302D393334382D3044363846444232323035412F7265736F75726365732F322F636E782E786D6C504B01021400140006080800C8508F50FF15A4A45D000000800000003A00000000000000000000000000D74A00006662782F31303932
310
413644412D304133352D343136302D393334382D3044363846444232323035412F7265736F75726365732F636E782E786D6C504B01021400140006080800C8508F50FE8C69E4420100005605000030000000000000000000000000008C4B00006662782F31303932413644412D304133352D343136302D393334382D304436
310
3846444232323035412F636E782E786D6C504B01021400140006080800C8508F507A2D7BE67E000000A30000000B000000000000000000000000001C4D00006662782F636E782E786D6C504B01021400140006080800C8508F50A6D797065F000000820000000700000000000000000000000000C34D0000636E782E786D6C
310
504B01021400140006080800C8508F50ECFD112DA8000000260100001300000000000000000000000000474E00005B436F6E74656E745F54797065735D2E786D6C504B01021400140006080800C8508F503DEE336E64000000790000001B00000000000000000000000000204F00006175746F6465736B2D64657369676E2D
310
7061636B6167652E786D6C504B01021400140006080800C8508F502CCCAF75F40000008E0100003D00000000000000000000000000BD4F00006662782F31303932413644412D304133352D343136302D393334382D3044363846444232323035412F7265736F75726365732F322F636F72652E786D6C504B01021400140006
310
080800C8508F504EEE74EFFA000000960100003B000000000000000000000000000C5100006662782F31303932413644412D304133352D343136302D393334382D3044363846444232323035412F7265736F75726365732F636F72652E786D6C504B01021400140006080800C8508F50045C4021F0000000B1010000310000
310
00000000000000000000005F5200006662782F31303932413644412D304133352D343136302D393334382D3044363846444232323035412F636F72652E786D6C504B01021400140006080800C8508F508D02EDC554010000DD0200000C000000000000000000000000009E5300006662782F636F72652E786D6C504B010214
310
00140006080800C8508F50A510170E08010000B201000008000000000000000000000000001C550000636F72652E786D6C504B050600000000120012002D0600004A5600000000
  0
XRECORD
  5
101001A
102
{ACAD_REACTORS
330
1010015
102
}
330
1010015
100
AcDbXrecord
280
     1
270
     1
271
     1
  0
XRECORD
  5
1010019
102
{ACAD_REACTORS
330
1010015
102
}
330
1010015
100
AcDbXrecord
280
     1
270
     1
271
     1
  0
XRECORD
  5
101001B
102
{ACAD_REACTORS
330
1010015
102
}
330
1010015
100
AcDbXrecord
280
     1
270
     1
271
     1
  0
XRECORD
  5
1010018
102
{ACAD_REACTORS
330
1010015
102
}
330
1010015
100
AcDbXrecord
280
     1
270
     1
271
     1
  0
XRECORD
  5
1015D44
102
{ACAD_REACTORS
330
1014D68
102
}
330
1014D68
100
AcDbXrecord
280
     1
102
DISPLAYNAME
  1
Metric50
102
FLAGS
 90
        0
  0
CELLSTYLEMAP
  5
1015D43
102
{ACAD_REACTORS
330
1014CE2
102
}
330
1014CE2
100
AcDbCellStyleMap
 90
        3
300
CELLSTYLE
  1
TABLEFORMAT_BEGIN
 90
        5
170
     1
 91
        0
 92
    32768
 62
   257
 93
        1
300
CONTENTFORMAT
  1
CONTENTFORMAT_BEGIN
 90
        0
 91
        0
 92
      512
 93
        0
300

 40
0.0
140
1.0
 94
        5
 62
     0
340
11
144
6.0
309
CONTENTFORMAT_END
171
     1
301
MARGIN
  1
CELLMARGIN_BEGIN
 40
1.5
 40
1.5
 40
1.5
 40
1.5
 40
0.18
 40
0.18
309
CELLMARGIN_END
 94
        6
 95
        1
302
GRIDFORMAT
  1
GRIDFORMAT_BEGIN
 90
        0
 91
        1
 62
     0
 92
       -2
340
0
 93
        0
 40
1.125
309
GRIDFORMAT_END
 95
        2
302
GRIDFORMAT
  1
GRIDFORMAT_BEGIN
 90
        0
 91
        1
 62
     0
 92
       -2
340
0
 93
        0
 40
1.125
309
GRIDFORMAT_END
 95
        4
302
GRIDFORMAT
  1
GRIDFORMAT_BEGIN
 90
        0
 91
        1
 62
     0
 92
       -2
340
0
 93
        0
 40
1.125
309
GRIDFORMAT_END
 95
        8
302
GRIDFORMAT
  1
GRIDFORMAT_BEGIN
 90
        0
 91
        1
 62
     0
 92
       -2
340
0
 93
        0
 40
1.125
309
GRIDFORMAT_END
 95
       16
302
GRIDFORMAT
  1
GRIDFORMAT_BEGIN
 90
        0
 91
        1
 62
     0
 92
       -2
340
0
 93
        0
 40
1.125
309
GRIDFORMAT_END
 95
       32
302
GRIDFORMAT
  1
GRIDFORMAT_BEGIN
 90
        0
 91
        1
 62
     0
 92
       -2
340
0
 93
        0
 40
1.125
309
GRIDFORMAT_END
309
TABLEFORMAT_END
  1
CELLSTYLE_BEGIN
 90
        1
 91
        1
300
_TITLE
309
CELLSTYLE_END
300
CELLSTYLE
  1
TABLEFORMAT_BEGIN
 90
        5
170
     1
 91
        0
 92
        0
 62
   257
 93
        1
300
CONTENTFORMAT
  1
CONTENTFORMAT_BEGIN
 90
        0
 91
        0
 92
      512
 93
        0
300

 40
0.0
140
1.0
 94
        5
 62
     0
340
11
144
4.5
309
CONTENTFORMAT_END
171
     1
301
MARGIN
  1
CELLMARGIN_BEGIN
 40
1.5
 40
1.5
 40
1.5
 40
1.5
 40
0.18
 40
0.18
309
CELLMARGIN_END
 94
        6
 95
        1
302
GRIDFORMAT
  1
GRIDFORMAT_BEGIN
 90
        0
 91
        1
 62
     0
 92
       -2
340
0
 93
        0
 40
1.125
309
GRIDFORMAT_END
 95
        2
302
GRIDFORMAT
  1
GRIDFORMAT_BEGIN
 90
        0
 91
        1
 62
     0
 92
       -2
340
0
 93
        0
 40
1.125
309
GRIDFORMAT_END
 95
        4
302
GRIDFORMAT
  1
GRIDFORMAT_BEGIN
 90
        0
 91
        1
 62
     0
 92
       -2
340
0
 93
        0
 40
1.125
309
GRIDFORMAT_END
 95
        8
302
GRIDFORMAT
  1
GRIDFORMAT_BEGIN
 90
        0
 91
        1
 62
     0
 92
       -2
340
0
 93
        0
 40
1.125
309
GRIDFORMAT_END
 95
       16
302
GRIDFORMAT
  1
GRIDFORMAT_BEGIN
 90
        0
 91
        1
 62
     0
 92
       -2
340
0
 93
        0
 40
1.125
309
GRIDFORMAT_END
 95
       32
302
GRIDFORMAT
  1
GRIDFORMAT_BEGIN
 90
        0
 91
        1
 62
     0
 92
       -2
340
0
 93
        0
 40
1.125
309
GRIDFORMAT_END
309
TABLEFORMAT_END
  1
CELLSTYLE_BEGIN
 90
        2
 91
        1
300
_HEADER
309
CELLSTYLE_END
300
CELLSTYLE
  1
TABLEFORMAT_BEGIN
 90
        5
170
     1
 91
        0
 92
        0
 62
   257
 93
        1
300
CONTENTFORMAT
  1
CONTENTFORMAT_BEGIN
 90
        0
 91
        0
 92
      512
 93
        0
300

 40
0.0
140
1.0
 94
        2
 62
     0
340
11
144
4.5
309
CONTENTFORMAT_END
171
     1
301
MARGIN
  1
CELLMARGIN_BEGIN
 40
1.5
 40
1.5
 40
1.5
 40
1.5
 40
0.18
 40
0.18
309
CELLMARGIN_END
 94
        6
 95
        1
302
GRIDFORMAT
  1
GRIDFORMAT_BEGIN
 90
        0
 91
        1
 62
     0
 92
       -2
340
0
 93
        0
 40
1.125
309
GRIDFORMAT_END
 95
        2
302
GRIDFORMAT
  1
GRIDFORMAT_BEGIN
 90
        0
 91
        1
 62
     0
 92
       -2
340
0
 93
        0
 40
1.125
309
GRIDFORMAT_END
 95
        4
302
GRIDFORMAT
  1
GRIDFORMAT_BEGIN
 90
        0
 91
        1
 62
     0
 92
       -2
340
0
 93
        0
 40
1.125
309
GRIDFORMAT_END
 95
        8
302
GRIDFORMAT
  1
GRIDFORMAT_BEGIN
 90
        0
 91
        1
 62
     0
 92
       -2
340
0
 93
        0
 40
1.125
309
GRIDFORMAT_END
 95
       16
302
GRIDFORMAT
  1
GRIDFORMAT_BEGIN
 90
        0
 91
        1
 62
     0
 92
       -2
340
0
 93
        0
 40
1.125
309
GRIDFORMAT_END
 95
       32
302
GRIDFORMAT
  1
GRIDFORMAT_BEGIN
 90
        0
 91
        1
 62
     0
 92
       -2
340
0
 93
        0
 40
1.125
309
GRIDFORMAT_END
309
TABLEFORMAT_END
  1
CELLSTYLE_BEGIN
 90
        3
 91
        2
300
_DATA
309
CELLSTYLE_END
  0
ENDSEC
  0
SECTION
  2
ACDSDATA
 70
     2
 71
     8
  0
ACDSSCHEMA
 90
        0
  1
AcDb_Thumbnail_Schema
  2
AcDbDs::ID
280
    10
 91
        8
  2
Thumbnail_Data
280
    15
 91
        0
101
ACDSRECORD
 95
        0
 90
        1
  2
AcDbDs::TreatedAsObjectData
280
     1
291
     1
101
ACDSRECORD
 95
        0
 90
        2
  2
AcDbDs::Legacy
280
     1
291
     1
101
ACDSRECORD
  1
AcDbDs::ID
 90
        3
  2
AcDs:Indexable
280
     1
291
     1
101
ACDSRECORD
  1
AcDbDs::ID
 90
        4
  2
AcDbDs::HandleAttribute
280
     7
282
     1
  0
ACDSSCHEMA
 90
        1
  1
AcDbDs::TreatedAsObjectDataSchema
  2
AcDbDs::TreatedAsObjectData
280
     1
 91
        0
  0
ACDSSCHEMA
 90
        2
  1
AcDbDs::LegacySchema
  2
AcDbDs::Legacy
280
     1
 91
        0
  0
ACDSSCHEMA
 90
        3
  1
AcDbDs::IndexedPropertySchema
  2
AcDs:Indexable
280
     1
 91
        0
  0
ACDSSCHEMA
 90
        4
  1
AcDbDs::HandleAttributeSchema
  2
AcDbDs::HandleAttribute
280
     7
 91
        1
284
     1
  0
ACDSRECORD
 90
        0
  2
AcDbDs::ID
280
    10
320
1010052
  2
Thumbnail_Data
280
    15
 94
     2053
310
89504E470D0A1A0A0000000D49484452000001000000008208030000009EA3E63300000300504C5445212830000000C8C8C80000000000000000000000000000000000000000000000000000330000660000990000CC0000FF0033000033330033660033990033CC0033FF0066000066330066660066990066CC0066FF0099
310
000099330099660099990099CC0099FF00CC0000CC3300CC6600CC9900CCCC00CCFF00FF0000FF3300FF6600FF9900FFCC00FFFF3300003300333300663300993300CC3300FF3333003333333333663333993333CC3333FF3366003366333366663366993366CC3366FF3399003399333399663399993399CC3399FF33CC00
310
33CC3333CC6633CC9933CCCC33CCFF33FF0033FF3333FF6633FF9933FFCC33FFFF6600006600336600666600996600CC6600FF6633006633336633666633996633CC6633FF6666006666336666666666996666CC6666FF6699006699336699666699996699CC6699FF66CC0066CC3366CC6666CC9966CCCC66CCFF66FF0066
310
FF3366FF6666FF9966FFCC66FFFF9900009900339900669900999900CC9900FF9933009933339933669933999933CC9933FF9966009966339966669966999966CC9966FF9999009999339999669999999999CC9999FF99CC0099CC3399CC6699CC9999CCCC99CCFF99FF0099FF3399FF6699FF9999FFCC99FFFFCC0000CC00
310
33CC0066CC0099CC00CCCC00FFCC3300CC3333CC3366CC3399CC33CCCC33FFCC6600CC6633CC6666CC6699CC66CCCC66FFCC9900CC9933CC9966CC9999CC99CCCC99FFCCCC00CCCC33CCCC66CCCC99CCCCCCCCCCFFCCFF00CCFF33CCFF66CCFF99CCFFCCCCFFFFFF0000FF0033FF0066FF0099FF00CCFF00FFFF3300FF3333
310
FF3366FF3399FF33CCFF33FFFF6600FF6633FF6666FF6699FF66CCFF66FFFF9900FF9933FF9966FF9999FF99CCFF99FFFFCC00FFCC33FFCC66FFCC99FFCCCCFFCCFFFFFF00FFFF33FFFF66FFFF99FFFFCCFFFFFF0000000D0D0D1A1A1A2828283535354343435050505D5D5D6B6B6B787878868686939393A1A1A1AEAEAEBB
310
BBBBC9C9C9D6D6D6E4E4E4F1F1F1FFFFFF000000000000000000000000000000000000000000000000000000000000B21171F6000002A34944415478DAED9BCB7AAC20100679FF47FDF7EC138DA3221741CC390DA95AE41BC76886A2695A86380700000000000057FC0B20000100007F35092200000060F479F0DF5E890004
310
20000160041568BEE01E83022E6DCB9CBA7B377D87B68BFFBF80AA53EA8B379B023E1DA7F028DFC9DA5F5F5BB6BF15BFE34C8E81F28055DC8313E780A3678FAE532C20191BAA192BEBC5A6242C7D722C6EAD47FBF1F7CBA819E1EF3FC158187C7F149FEBF2CFB930449C7CCF9FF34EA6A682A2803817FE08488EE684169F08
310
382FD302C2896A69641803EB391F66F6C6EAD90D24E0E8468502F4BC1B4710900AE4F344EE7BD2985D0147B1E24A06D671DCD104C311B01770CE95632099F01A04C8EC10D0F68C5F32A04E03A6052CD1ED570779034A278E6992A0CF4CE0AF19B02A604B003E5BC2BC65C0A080F3A39ADF1A982BEBFA0D181F02F9083847CA
310
7303DE592F85B71C209731A08F81BD4C9E2D09A66781F70CD82F854B0BFDCBA9FD01F19981019E056E3E7F67263426A0BDAAEB35E0B75A725801BD06BCAD95613DEAC3C8808615F070185F0C68DC1CF0AC9EB918685A259D42C056106C3FDA66C339041C0F066A5D1F9844C06EE0B33CEA6B2F1B6059FC570D4C13016703AE
310
2D06661170CA032DF79948C033033309B818A89B0D6DAF0AF75444954FC7530958D6108F6F53EAEA8199868074DE105479B301BF1C2D1A50F095628501D302B6F25EF502CE8FB675068C0B50D47E9FCAFC8101171B50EE0A7B5BC5AE5B64DAF3805C6440232D8884BBBE4E7BC4F6778AC7F1D6DA657DE06E9398ADCD822AA6
310
C09BE3C4E1B581A121F37B85FB04FC64B8D104BCBAF355BAB9A3D10888E2F6F249E3D3CA674DB9E896F10E6AAB43E08D8B75533E4E3D046EEFE8C68A8067FFFFA15CAD643107020000000000000000000000000000000000000000C0A87C0172A40E11153542BE0000000049454E44AE4260821C2B26898E11BDC102DC3112
310
749E0DDC28792A0BC0FF6E8BD40EE41B45CF04609906417C36F456D9B35940EAFCD5ADC215CF0BF0ACBE25E6F06F119006701CA666399987C80DDE25A00380503D31D39682F42A4E40805AB3DB2644040F4E1E075F72B5A4BE14245B934720B96494CA6E3F36277B72146DFB631B5332EB78670218C9021CF701F55CAFEDAA
310
1FE0EC09664E3B233C381D9DA2EE49C93EAD9D00AE9D9F667C405D4600B6AC4E7B955B7F08ADB7C8A800D80706AF05B0F987310078A6587C934B35259B557AB470DA5F983AA01E7CC70EE0D1B7BE002DF7E054DE22937746D9424BBF68B380FEB88B27DF242555003A4DD6003C0840E4F577F9B7D2283CB16E9726F0EAABBE
310
B2DC9342B6DBE2441E8C33994C2693C96432994C2693C96432994C2693C96432994C2693C914EB0FF7DBFE59415E2C960000000049454E44AE42608273AC6BDFF60220F07A34050095EBFFA276BF9CB6F84736018CBE33A4D89F4F2CD27E1EBB6E7E2D83C82DFEB72530B6FF6AF4DF3A336DDAB46932EC0F21B2433948B09C
310
300000000049454E44AE42608290386A9545809B11B83C490081F088CC62A7B82461E60010F69455B506DAF8400E80C321A9D5C7A200D4CF4A0188D14EE89212F70EF97C09442D7E897ABD06701905DC7D5141C0BF38AC23F007ADAB30CEF5E86E450000000049454E44AE426082240560ECA9D903564F1F1E1B6E5B314EA4
310
3F8B4ACE37AC89CB300000000049454E44AE426082
  0
ENDSEC
  0
EOF
